Today is a free download without charge Download

Принцип Хабарова / Заклятые друзья / Серии: 1-16 из 16 (Андрей Щербинин) [2012, детектив, криминал, боевик, DVB]

Reply to topic
 
Author
Message

Omen ®

Longevity: 9 years

Posts: 181086

Торрент-статистика

Post 02-Mar-2013 14:48

[Quote]

Принцип Хабарова / Заклятые друзья
Год выпуска: 2012
Производство: Студия "Панорама"
Жанр: детектив, криминал, боевик
Продолжительность: ~0:44:00 серия
Субтитры: нет
Режиссёр: Андрей Щербинин
В ролях: Александр Марушев, Даниил Страхов, Людмила Харитонова, Игорь Николаев, Екатерина Зорина, Александр Блок, Роман Грибков, Юлия Рудина, Михаил Батуев, Александра Мареева, Юлия Нижельская, Наталья Иохвидова, Серафима Низовская, Диана Дезмари, Руслан Кацагаджиев, Алина Кикеля, Данила Воропаев, Сергей Гарусов, Сергей Рублёв, Александр Овчинников, Андрей Бордухаев, Сергей Воробьёв
Описание: На улице недалеко от своего дома от руки наёмного убийцы погибает близкий друг и заместитель начальника отдельной оперативно-следственной группы ГУВД полковника Хабарова. Его смерть заставляет полковника отложить на будущее планы выхода на пенсию. Расследование убийства он вынужден начать вместе с новым подчинённым - майором Ершовым, которого неуживчивому полковнику навязывает руководство. Первые же совместные шаги полицейских показали, что сработаться им будет очень непросто. Опытный, уверенный в своих силах Ершов во всём привык полагаться на самого себя, но Хабаров, сам обладающий независимым характером, не станет спокойно мириться со своеволием подчинённого, а методы, которыми пользуется Ершов, иногда кажутся ему просто возмутительными. Тем не менее, со временем складывается своеобразный дуэт двух этих незаурядных детективов и, хотя трения между ними не утихают, каждое новое дело становится доказательством их высокого профессионализма.
Релиз: --Качество: DVB (Express MD1 at 80.0°E)
Формат: MPEG-PS
Видео кодек: MPEG2
Аудио кодек: MP2
Видео: MPEG 2, 720x576 (4:3), 25.000 fps, 5350 Kbps (0.516 bit/pixel)
Аудио: MP2, 48.0 KHz, 2 ch, 256 Kbps, CBR

MediaInfo

ОбщееПолное имя : L:\Раздачи\Принцип Хабарова\Принцип Хабарова.01.mpgФормат : MPEG-PSРазмер файла : 1,72 ГбайтПродолжительность : 43 м.Режим общего битрейта : ПеременныйОбщий поток : 5721 Кбит/секБиблиотека кодирования : (c) 1998-2012 Womble Multimedia, Inc. / MPEG Video Wizard DVD 5.0.1.100 (03/2011) / Sep 7 2012
ВидеоИдентификатор : 224 (0xE0)Формат : MPEG VideoВерсия формата : Version 2Профиль формата : [email protected]Параметр BVOP формата : ДаПараметр матрицы формата : ВыборочнаяПараметр GOP формата : M=3, N=15Продолжительность : 43 м.Вид битрейта : ПеременныйБитрейт : 5352 Кбит/секМаксимальный битрейт : 15,0 Мбит/секШирина : 720 пикселейВысота : 576 пикселейСоотношение сторон : 4:3Частота кадров : 25,000 кадров/секСтандарт вещания : PALЦветовое пространство : YUVСубдискретизация насыщенности : 4:2:0Битовая глубина : 8 битТип развёртки : ЧересстрочнаяПорядок развёртки : Верхнее поле первоеМетод сжатия : С потерямиБит/(Пиксели*Кадры) : 0.516TimeCode_FirstFrame : 00:00:00:00TimeCode_Source : Group of pictures headerРазмер потока : 1,61 Гбайт (94%)Библиотека кодирования : (c) 1998-2012 Womble Multimedia, Inc. / MPEG Video Wizard DVD 5.0.1.100 (03/2011) / Sep 7 2012
АудиоИдентификатор : 192 (0xC0)Формат : MPEG AudioВерсия формата : Version 1Профиль формата : Layer 2Продолжительность : 43 м.Вид битрейта : ПостоянныйБитрейт : 256 Кбит/секКаналы : 2 каналаЧастота : 48,0 КГцМетод сжатия : С потерямиЗадержка видео : -80 мс.Размер потока : 79,0 Мбайт (4%)
Меню

Скриншоты


Раздача ведется путем добавления новых серий

Внимание! Раздача ведётся путём добавления новых серий; при каждом добавлении создётся новый торрент. Чтобы начать докачку новой серии, пользователям необходимо сделать следующее:
(1) остановить скачивание,
(2) удалить старый торрент у себя из клиента (старые серии удалять не надо),
(3) скачать новый торрент и запустить его у себя в клиенте вместо старого, при этом указать клиенту путь в старую папку куда и должно происходить скачивание новых серий.
Ваш клиент при этом должен произвести хеширование (проверку) старой папки (если не производит сам - помогите ему сделать это), и будет докачивать только те серии которых у вас ещё нет. Старые серии при этом не удаляются, а продолжают раздаваться!
Eсли вы уже удалили старые серии, то предотвратить повторную закачку старых серий можно, отжав галочку в соответствующих местах при запуске нового торрента.
Other forum [Profile] [PM]
Display posts from previous:    
Reply to topic

The time now is: Today 18:21

All times are GMT + 3 Hours



You cannot post new topics in this forum
You cannot reply to topics in this forum
You cannot edit your posts in this forum
You cannot delete your posts in this forum
You cannot vote in polls in this forum
You cannot attach files in this forum
You cannot download files in this forum