Today is a free download without charge Download

Миссис Минивер / Mrs. Miniver (Уильям Уайлер / William Wyler) [1942, США, драма, мелодрама, военный, BDRip 720p] MVO + Sub Eng + Original Eng

Reply to topic
 
Author
Message

Omen ®

Longevity: 8 years 5 months

Posts: 181087

Торрент-статистика

Post 02-Mar-2013 14:48

[Quote]

Миссис Минивер / Mrs. Miniver
Страна: США
Жанр: драма, мелодрама, военный
Год выпуска: 1942
Продолжительность: 2:13:39
Перевод: Профессиональный (многоголосый закадровый)
Cубтитры: английские
Оригинальная аудиодорожка: английский-Режиссер: Уильям Уайлер / William Wyler
В ролях: Грир Гарсон, Уолтер Пиджон, Тереза Райт, Мэй Уитти, Реджинальд Оуэн, Генри Треверс, Ричард Ней, Генри Уилкоксон, Кристофер Сэверн, Бренда Форбс
Описание: Фильм рассказывает о рядовых англичанах, защищавших свою страну в годы Второй мировой войны.
IMDb || КиноПоиск-Тип релиза: BDRip 720p [DON]
Контейнер: MKV
Видео: H.264/AVC, 986x720 at 23.976 fps, ~8302 Kbps
Аудио#1: Russian: 48 kHz, AC3, 2/0 (L,R) ch, 192.00 kbps |Многоголосый закадровый|
Аудио#2: English: 48 kHz, DTS, 1.0 ch, 755.00 kbps
Формат субтитров: softsub (SRT)
Сэмпл

MediaInfo

x264 Info

x264 [info]: frame I:1085 Avg QP:15.32 size:112757
x264 [info]: frame P:36602 Avg QP:16.42 size: 69883
x264 [info]: frame B:154555 Avg QP:18.23 size: 36500
x264 [info]: consecutive B-frames: 1.0% 0.3% 1.6% 16.6% 20.2% 51.0% 6.3% 3.1%
Format : Matroska
Format version : Version 2
File size : 8.65 GiB
Duration : 2h 13mn
Overall bit rate : 9 264 Kbps
Encoded date : UTC 2013-03-02 03:59:47
Writing application : mkvmerge v5.0.1 ('Es ist Sommer') built on Nov 6 2011 16:23:40
Writing library : libebml v1.2.2 + libmatroska v1.3.0
Video
ID : 1
Format : AVC
Format/Info : Advanced Video Codec
Format profile : [email protected]
Format settings, CABAC : Yes
Format settings, ReFrames : 11 frames
Codec ID : V_MPEG4/ISO/AVC
Duration : 2h 13mn
Bit rate : 8 133 Kbps
Width : 986 pixels
Height : 720 pixels
Display aspect ratio : 4:3
Frame rate : 23.976 fps
Color space : YUV
Chroma subsampling : 4:2:0
Bit depth : 8 bits
Scan type : Progressive
Bits/(Pixel*Frame) : 0.478
Stream size : 7.59 GiB (88%)
Title : Mrs. Miniver. (1942). 720p-DON
Writing library : x264 core 120 r2164+656 2ff844c
Encoding settings : cabac=1 / ref=11 / deblock=1:-3:-3 / analyse=0x3:0x133 / me=umh / subme=10 / psy=1 / fade_compensate=0.00 / psy_rd=0.08:0.05 / mixed_ref=1 / me_range=32 / chroma_me=1 / trellis=2 / 8x8dct=1 / cqm=0 / deadzone=21,11 / fast_pskip=0 / chroma_qp_offset=-2 / threads=3 / sliced_threads=0 / nr=0 / decimate=0 / interlaced=0 / bluray_compat=0 / constrained_intra=0 / fgo=0 / bframes=7 / b_pyramid=2 / b_adapt=2 / b_bias=0 / direct=3 / weightb=1 / open_gop=0 / weightp=2 / keyint=250 / keyint_min=23 / scenecut=40 / intra_refresh=0 / rc=crf / mbtree=0 / crf=16.0 / qcomp=0.70 / qpmin=0 / qpmax=69 / qpstep=4 / ip_ratio=1.40 / pb_ratio=1.30 / aq=3:0.95
Language : English
Default : Yes
Forced : No
Audio #1
ID : 2
Format : AC-3
Format/Info : Audio Coding 3
Mode extension : CM (complete main)
Codec ID : A_AC3
Duration : 2h 13mn
Bit rate mode : Constant
Bit rate : 192 Kbps
Channel(s) : 2 channels
Channel positions : Front: L R
Sampling rate : 48.0 KHz
Bit depth : 16 bits
Compression mode : Lossy
Stream size : 184 MiB (2%)
Language : Russian
Default : Yes
Forced : No
Audio #2
ID : 3
Format : DTS
Format/Info : Digital Theater Systems
Codec ID : A_DTS
Duration : 2h 13mn
Bit rate mode : Constant
Bit rate : 755 Kbps
Channel(s) : 1 channel
Channel positions : Front: C
Sampling rate : 48.0 KHz
Bit depth : 24 bits
Compression mode : Lossy
Stream size : 721 MiB (8%)
Language : English
Default : No
Forced : No
Text
ID : 4
Format : UTF-8
Codec ID : S_TEXT/UTF8
Codec ID/Info : UTF-8 Plain Text
Language : English
Default : No
Forced : No
Menu
00:00:00.000 : :00:00:00.000
00:01:43.645 : :00:01:43.645
00:05:41.466 : :00:05:41.466
00:09:14.304 : :00:09:14.304
00:13:07.996 : :00:13:07.996
00:18:53.549 : :00:18:53.549
00:21:09.435 : :00:21:09.435
00:26:37.179 : :00:26:37.179
00:32:32.367 : :00:32:32.367
00:35:36.343 : :00:35:36.343
00:37:59.486 : :00:37:59.486
00:42:41.851 : :00:42:41.851
00:46:16.273 : :00:46:16.273
00:48:29.073 : :00:48:29.073
00:53:00.010 : :00:53:00.010
00:57:57.683 : :00:57:57.683
01:00:00.680 : :01:00:00.680
01:02:56.815 : :01:02:56.815
01:06:42.415 : :01:06:42.415
01:09:11.439 : :01:09:11.439
01:15:04.625 : :01:15:04.625
01:20:35.914 : :01:20:35.914
01:23:41.350 : :01:23:41.350
01:28:07.073 : :01:28:07.073
01:32:14.738 : :01:32:14.738
01:40:58.052 : :01:40:58.052
01:45:51.679 : :01:45:51.679
01:48:39.096 : :01:48:39.096
01:54:34.117 : :01:54:34.117
01:59:33.124 : :01:59:33.124
02:03:39.621 : :02:03:39.621
02:13:00.639 : :02:13:00.639

Скриншоты

DON vs Source
Other forum [Profile] [PM]
Display posts from previous:    
Reply to topic

The time now is: Today 09:22

All times are GMT + 3 Hours



You cannot post new topics in this forum
You cannot reply to topics in this forum
You cannot edit your posts in this forum
You cannot delete your posts in this forum
You cannot vote in polls in this forum
You cannot attach files in this forum
You cannot download files in this forum