Today is a free download without charge Download

Полиция / Police (Морис Пиала / Maurice Pialat) [1985, Франция, драма, криминал, BDRip 720p] DVO

Reply to topic
 
Author
Message

Omen ®

Longevity: 8 years 5 months

Posts: 181087

Торрент-статистика

Post 28-Feb-2013 16:04

[Quote]

Полиция / Police
Страна: Франция
Студия: Gaumont International, TF1 Films Production
Жанр: драма, криминал
Год выпуска: 1985
Продолжительность: 01:48:35
Перевод: Профессиональный (двухголосый закадровый)
Cубтитры: нет
Режиссер: Морис Пиала / Maurice Pialat
В ролях: Жерар Депардье, Софи Марсо, Ришар Анконина, Паскаль Рокар, Сандрин Боннэр, Франк Карои, Джонатан Лейна, Жак Мато, Бернар Фюзелье, Меаачо Бентахар, Янн Деде, Морис Пиала
Описание: Инспектор полиции Луис Венсан Маньин не склонен к сантиментам - он груб, жесток и ценичен. Расследуя дело о торговцах наркотиками из Туниса, он знакомится со странной и непредсказуемой девушкой Норией. На допросе, где они впервые встретились, Луису и в голову не могло прийти, что страсть, которая соединит их, смертельно опасна для жизни...
Сэмпл: http://multi-up.com/836784
Тип релиза: BDRip 1080p
Контейнер: MKV
Видео: x264, 1792x1080, (1.659:1), 8848 kbps, 25 fps
Аудио: Русский, AC3, 2 ch, 48 KHz, 192 kbps

MediaInfo

Уникальный идентификатор : 217517078542844494307897020344373692858 (0xA3A443F7AF772426968D9608F85D49BA)
Полное имя : Police.1985.BluRay.1080p.x264.mkv
Формат : Matroska
Версия формата : Version 2
Размер файла : 7,18 Гбайт
Продолжительность : 1 ч. 48 м.
Режим общего битрейта : Переменный
Общий поток : 9473 Кбит/сек
Дата кодирования : UTC 2013-02-27 06:37:56
Программа кодирования : mkvmerge v3.4.0 ('Rapunzel') сборка от May 15 2010 09:38:20
Библиотека кодирования : libebml v0.8.0 + libmatroska v0.9.0
Видео
Идентификатор : 1
Формат : AVC
Формат/Информация : Advanced Video Codec
Профиль формата : [email protected]
Параметр CABAC формата : Да
Параметр ReFrames формата : 4 кадра
Идентификатор кодека : V_MPEG4/ISO/AVC
Продолжительность : 1 ч. 48 м.
Вид битрейта : Переменный
Битрейт : 8848 Кбит/сек
Максимальный битрейт : 40,0 Мбит/сек
Ширина : 1792 пикселя
Высота : 1080 пикселей
Соотношение сторон : 1,659
Частота кадров : 25,000 кадров/сек
Цветовое пространство : YUV
Субдискретизация насыщенности : 4:2:0
Битовая глубина : 8 бит
Тип развёртки : Прогрессивная
Бит/(Пиксели*Кадры) : 0.183
Размер потока : 6,90 Гбайт (96%)
Библиотека кодирования : x264 core 129 r2245 bc13772
Настройки программы : cabac=1 / ref=4 / deblock=1:0:0 / analyse=0x3:0x133 / me=umh / subme=7 / psy=1 / psy_rd=1.00:0.00 / mixed_ref=1 / me_range=16 / chroma_me=1 / trellis=1 / 8x8dct=1 / cqm=0 / deadzone=21,11 / fast_pskip=0 / chroma_qp_offset=-2 / threads=18 / lookahead_threads=3 / sliced_threads=0 / nr=0 / decimate=1 / interlaced=0 / bluray_compat=0 / constrained_intra=0 / bframes=3 / b_pyramid=2 / b_adapt=2 / b_bias=0 / direct=3 / weightb=1 / open_gop=0 / weightp=2 / keyint=250 / keyint_min=24 / scenecut=40 / intra_refresh=0 / rc_lookahead=50 / rc=2pass / mbtree=1 / bitrate=8848 / ratetol=1.0 / qcomp=0.60 / qpmin=0 / qpmax=69 / qpstep=4 / cplxblur=20.0 / qblur=0.5 / ip_ratio=1.40 / aq=1:1.0
Default : Да
Forced : Нет
Аудио
Идентификатор : 2
Формат : AC-3
Формат/Информация : Audio Coding 3
Расширение режима : CM (complete main)
Параметр Endianness формата : Big
Идентификатор кодека : A_AC3
Продолжительность : 1 ч. 48 м.
Вид битрейта : Постоянный
Битрейт : 192 Кбит/сек
Каналы : 2 канала
Расположение каналов : Front: L R
Частота : 48,0 КГц
Битовая глубина : 16 бит
Метод сжатия : С потерями
Задержка видео : 300 мс.
Размер потока : 149 Мбайт (2%)
Default : Да
Forced : Нет

Скриншоты

Other forum [Profile] [PM]
Display posts from previous:    
Reply to topic

The time now is: Today 19:21

All times are GMT + 3 Hours



You cannot post new topics in this forum
You cannot reply to topics in this forum
You cannot edit your posts in this forum
You cannot delete your posts in this forum
You cannot vote in polls in this forum
You cannot attach files in this forum
You cannot download files in this forum