Today is a free download without charge Download

Атлант расправил плечи: Часть 2 / Atlas Shrugged: Part II / Atlas Shrugged II: The Strike (Джон Путч / John Putch) [2012, США, фантастика, драма, детектив, BDRip 1080p] VO (den904) + Original (Eng) + Sub (Eng)

Reply to topic
 
Author
Message

Omen ®

Longevity: 8 years 5 months

Posts: 181087

Торрент-статистика

Post 28-Feb-2013 16:04

[Quote]

Атлант расправил плечи: Часть 2 / Atlas Shrugged: Part 2 / Atlas Shrugged II: The Strike Страна: США
Жанр: фантастика, драма, детектив
Год выпуска: 2012
Продолжительность: 01:51:34
Перевод: Одноголосый закадровый den904
Cубтитры: английские
Оригинальная аудиодорожка: английский
Режиссер: Джон Путч / John Putch
В ролях: Саманта Мэтис, Джейсон Бех, Эсай Моралес, Патрик Фабиан, Ким Родс, Ричард Т. Джонс, Д.Б. Суини, Пол МакКрейн, Джон Рубинстайн, Роберт Пикардо
Описание:
Мировая экономика на грани коллапса. Безработица выросла до 24%. Газ стоит $42 за галлон. Блестящие создатели, от художников до промышленников, продолжают загадочно исчезать по неизвестным причинам. Дэгни Таггарт обнаружила возможный путь разрешения проблемы — заброшенную перед кризисом фабрику с необычным мотором, способным дать любое количество энергии для Земли. Но, мотор мертв… Нет более никого, кто бы мог раскрыть его тайну. Но Дэгни не намерена сдаваться — времени осталось немного, а найти изобретателя мотора — означает спасти мир.
- -Тип релиза: BDRip 1080p (рип от MySilu)
Контейнер: MKV
Видео: AVC (x264), 1920x1080 (16:9) at 23,976 fps, 11300 Кbps, 0.228 bpp
Аудио 1: AC3; 384 Kbps; CBR; 6 ch; 48 khz | VO - den904 |
Аудио 2: DTS; 1536 Kbps; CBR; 6 ch; 48 khz; 24 bit | Английский |
Формат субтитров: softsub (SRT)

Скриншоты || x264 Info || MediaInfo || Notes

MediaInfo

Код:
Общее
Уникальный идентификатор                 : 230770589219524070561177139147729722369 (0xAD9CCC7E8FC50BA0AA4081D3BE22DC01)
Полное имя                               : Атлант расправил плечи. Часть 2.2012.L1.1080p.BluRay.x264-MySilu.mkv
Формат                                   : Matroska
Версия формата                           : Version 4 / Version 2
Размер файла                             : 10,3 Гбайт
Продолжительность                        : 1 ч. 51 м.
Общий поток                              : 13,2 Мбит/сек
Название фильма                          : profile.php?mode=viewprofile&u=22488948
Дата кодирования                         : UTC 2013-02-28 09:39:29
Программа кодирования                    : mkvmerge v6.0.0 ('Coming Up For Air') built on Jan 20 2013 09:52:00
Библиотека кодирования                   : libebml v1.3.0 + libmatroska v1.4.0
Видео
Идентификатор                            : 1
Формат                                   : AVC
Формат/Информация                        : Advanced Video Codec
Профиль формата                          : [email protected]
Параметр CABAC формата                   : Да
Параметр ReFrames формата                : 4 кадра
Идентификатор кодека                     : V_MPEG4/ISO/AVC
Продолжительность                        : 1 ч. 51 м.
Битрейт                                  : 11,3 Мбит/сек
Ширина                                   : 1920 пикселей
Высота                                   : 1080 пикселей
Соотношение сторон                       : 16:9
Частота кадров                           : 23,976 кадра/сек
Цветовое пространство                    : YUV
Субдискретизация насыщенности            : 4:2:0
Битовая глубина                          : 8 бит
Тип развёртки                            : Прогрессивная
Бит/(Пиксели*Кадры)                      : 0.228
Размер потока                            : 8,61 Гбайт (84%)
Библиотека кодирования                   : x264 core 129 r2245 bc13772
Настройки программы                      : cabac=1 / ref=4 / deblock=1:-2:-2 / analyse=0x3:0x113 / me=umh / subme=10 / psy=1 / psy_rd=1.20:0.20 / mixed_ref=1 / me_range=32 / chroma_me=1 / trellis=2 / 8x8dct=1 / cqm=0 / deadzone=21,11 / fast_pskip=0 / chroma_qp_offset=-3 / threads=6 / lookahead_threads=1 / sliced_threads=0 / nr=0 / decimate=0 / interlaced=0 / bluray_compat=0 / constrained_intra=0 / bframes=5 / b_pyramid=2 / b_adapt=2 / b_bias=0 / direct=3 / weightb=1 / open_gop=0 / weightp=2 / keyint=240 / keyint_min=1 / scenecut=40 / intra_refresh=0 / rc_lookahead=60 / rc=2pass / mbtree=0 / bitrate=11319 / ratetol=1.0 / qcomp=0.60 / qpmin=10 / qpmax=51 / qpstep=4 / cplxblur=20.0 / qblur=0.5 / vbv_maxrate=38000 / vbv_bufsize=38000 / nal_hrd=none / ip_ratio=1.40 / pb_ratio=1.30 / aq=1:1.00
Язык                                     : English
Default                                  : Да
Forced                                   : Нет
Аудио #1
Идентификатор                            : 2
Формат                                   : AC-3
Формат/Информация                        : Audio Coding 3
Расширение режима                        : CM (complete main)
Идентификатор кодека                     : A_AC3
Продолжительность                        : 1 ч. 51 м.
Вид битрейта                             : Постоянный
Битрейт                                  : 384 Кбит/сек
Каналы                                   : 6 каналов
Расположение каналов                     : Front: L C R, Side: L R, LFE
Частота                                  : 48,0 КГц
Битовая глубина                          : 16 бит
Метод сжатия                             : С потерями
Размер потока                            : 306 Мбайт (3%)
Заголовок                                : VO [den904]
Язык                                     : Russian
Default                                  : Да
Forced                                   : Нет
Аудио #2
Идентификатор                            : 3
Формат                                   : DTS
Формат/Информация                        : Digital Theater Systems
Идентификатор кодека                     : A_DTS
Продолжительность                        : 1 ч. 51 м.
Вид битрейта                             : Постоянный
Битрейт                                  : 1510 Кбит/сек
Каналы                                   : 6 каналов
Расположение каналов                     : Front: L C R, Side: L R, LFE
Частота                                  : 48,0 КГц
Битовая глубина                          : 24 бит
Метод сжатия                             : С потерями
Размер потока                            : 1,18 Гбайт (11%)
Язык                                     : English
Default                                  : Нет
Forced                                   : Нет
Текст
Идентификатор                            : 4
Формат                                   : UTF-8
Идентификатор кодека                     : S_TEXT/UTF8
Идентификатор кодека/Информация          : UTF-8 Plain Text
Язык                                     : English
Default                                  : Нет
Forced                                   : Нет
Меню
00:00:00.000                             : en:00:00:00.000
00:02:33.737                             : en:00:02:33.737
00:06:25.635                             : en:00:06:25.635
00:09:43.333                             : en:00:09:43.333
00:13:25.346                             : en:00:13:25.346
00:17:38.975                             : en:00:17:38.975
00:21:47.264                             : en:00:21:47.264
00:25:04.044                             : en:00:25:04.044
00:27:59.052                             : en:00:27:59.052
00:34:37.826                             : en:00:34:37.826
00:38:37.565                             : en:00:38:37.565
00:41:46.045                             : en:00:41:46.045
00:45:25.890                             : en:00:45:25.890
00:50:23.812                             : en:00:50:23.812
00:52:37.780                             : en:00:52:37.780
00:57:23.940                             : en:00:57:23.940
00:58:52.404                             : en:00:58:52.404
01:05:18.123                             : en:01:05:18.123
01:10:51.164                             : en:01:10:51.164
01:18:55.230                             : en:01:18:55.230
01:26:53.291                             : en:01:26:53.291
01:34:15.024                             : en:01:34:15.024
01:39:19.036                             : en:01:39:19.036
01:45:34.411                             : en:01:45:34.411

x264 Info

x264 [info]: frame I:1281 Avg QP:15.46 size:269491
x264 [info]: frame P:39466 Avg QP:17.35 size:119406
x264 [info]: frame B:119749 Avg QP:18.81 size: 36755
Other forum [Profile] [PM]
Display posts from previous:    
Reply to topic

The time now is: Today 06:04

All times are GMT + 3 Hours



You cannot post new topics in this forum
You cannot reply to topics in this forum
You cannot edit your posts in this forum
You cannot delete your posts in this forum
You cannot vote in polls in this forum
You cannot attach files in this forum
You cannot download files in this forum