Today is a free download without charge Download

Хранители снов / Rise of the Guardians [2012, США, мультфильм, фэнтези, приключения, BDRemux 1080p]

Reply to topic
 
Author
Message

Omen ®

Longevity: 9 years

Posts: 181086

Торрент-статистика

Post 28-Feb-2013 16:04

[Quote]

Хранители сновRise of the Guardians«Naughty, nice. You better believe.»- Страна: США
Жанр: мультфильм, фэнтези, приключения, семейный
Год выпуска: 2012
Продолжительность: 01:37:11-Перевод:
Субтитры,
Профессиональный (полное дублирование),
Оригинальный.
Субтитры:
английские, русские.
В ролях:
Крис Пайн (Jack Frost, озвучка), Алек Болдуин (North, озвучка), Джуд Лоу (Pitch, озвучка), Айла Фишер (Tooth, озвучка), Хью Джекман (Bunny, озвучка), Дакота Гойо (Jamie Bennett, озвучка), Хамани Гриффин (Caleb, озвучка), Камиль МакФедден (Claude, озвучка), Джорджи Грив (Sophie Bennett, озвучка), Эмили Нордвинд (Jamie's Mom / Jack's Mother, озвучка), Джейкоб Бертран (Monty, озвучка), Оливия Маттингли (Pippa / Jack's Sister, озвучка)-Описание: Когда злой дух Кромешник посягает на самое дорогое - детские мечты, Северянин, Ледяной Джек, Кролик, Зубная Фея и Песочный Человек впервые объединяются, чтобы создать команду Хранителей снов...-
MPAA: PG - Рекомендуется присутствие родителей-Качество: BDRemux
Контейнер: MKV
Сэмпл
Видео: AVC, 1920x1080 (16:9), 32999 kbps, 23,976 fps, 0,664 bpp
Аудио №1: русский / AC3 / 5.1 / 48 kHz / 448 kbps / 16 bit
Аудио №2: английский / DTS-HD / 7.1 / 3300 kbps (DTS Core: 5.1 / 48 kHz / 1596 kbps / 24 bit)
Субтитры №1: Русские
Субтитры №2: Английские
Навигация по главам: есть-

Media Info

General
Unique ID : 215887427702159123746610098839429373960 (0xA26A67FA499175BA93E131AB2958E008)
Complete name : D:\Rise.of.the.Guardians.2012.BDRemux.Orig.Dub.Subs.mkv
Format : Matroska
Format version : Version 4 / Version 2
File size : 24.2 GiB
Duration : 1h 37mn
Overall bit rate mode : Variable
Overall bit rate : 35.7 Mbps
Encoded date : UTC 2013-02-28 08:23:10
Writing application : mkvmerge v6.0.0 ('Coming Up For Air') built on Jan 20 2013 09:52:00
Writing library : libebml v1.3.0 + libmatroska v1.4.0
Video
ID : 1
Format : AVC
Format/Info : Advanced Video Codec
Format profile : [email protected]
Format settings, CABAC : Yes
Format settings, ReFrames : 4 frames
Format settings, GOP : M=1, N=12
Codec ID : V_MPEG4/ISO/AVC
Duration : 1h 37mn
Bit rate mode : Variable
Bit rate : 33.0 Mbps
Width : 1 920 pixels
Height : 1 080 pixels
Display aspect ratio : 16:9
Frame rate : 23.976 fps
Color space : YUV
Chroma subsampling : 4:2:0
Bit depth : 8 bits
Scan type : Progressive
Bits/(Pixel*Frame) : 0.664
Stream size : 22.4 GiB (92%)
Default : Yes
Forced : No
Audio #1
ID : 2
Format : AC-3
Format/Info : Audio Coding 3
Mode extension : CM (complete main)
Codec ID : A_AC3
Duration : 1h 37mn
Bit rate mode : Constant
Bit rate : 448 Kbps
Channel(s) : 6 channels
Channel positions : Front: L C R, Side: L R, LFE
Sampling rate : 48.0 KHz
Bit depth : 16 bits
Compression mode : Lossy
Stream size : 311 MiB (1%)
Title : Dub
Language : Russian
Default : Yes
Forced : Yes
Audio #2
ID : 3
Format : DTS
Format/Info : Digital Theater Systems
Format profile : MA / Core
Codec ID : A_DTS
Duration : 1h 37mn
Bit rate mode : Variable
Bit rate : Unknown / 1 510 Kbps
Channel(s) : 8 channels / 6 channels
Channel positions : Front: L C R, Side: L R, Back: L R, LFE / Front: L C R, Side: L R, LFE
Sampling rate : 48.0 KHz
Bit depth : 24 bits
Compression mode : Lossless / Lossy
Title : Original
Language : English
Default : No
Forced : No
Text #1
ID : 4
Format : UTF-8
Codec ID : S_TEXT/UTF8
Codec ID/Info : UTF-8 Plain Text
Language : English
Default : No
Forced : No
Text #2
ID : 5
Format : UTF-8
Codec ID : S_TEXT/UTF8
Codec ID/Info : UTF-8 Plain Text
Language : Russian
Default : No
Forced : No
Menu
00:00:00.000 : en:00:00:00.000
00:03:51.481 : en:00:03:51.481
00:10:34.842 : en:00:10:34.842
00:16:17.643 : en:00:16:17.643
00:24:49.362 : en:00:24:49.362
00:30:38.378 : en:00:30:38.378
00:36:38.946 : en:00:36:38.946
00:43:05.165 : en:00:43:05.165
00:50:22.310 : en:00:50:22.310
00:58:09.611 : en:00:58:09.611
01:03:55.331 : en:01:03:55.331
01:09:12.815 : en:01:09:12.815
01:14:03.188 : en:01:14:03.188
01:20:44.923 : en:01:20:44.923
01:24:51.503 : en:01:24:51.503
01:28:33.891 : en:01:28:33.891

Скриншоты








Other forum [Profile] [PM]
Display posts from previous:    
Reply to topic

The time now is: Today 02:41

All times are GMT + 3 Hours



You cannot post new topics in this forum
You cannot reply to topics in this forum
You cannot edit your posts in this forum
You cannot delete your posts in this forum
You cannot vote in polls in this forum
You cannot attach files in this forum
You cannot download files in this forum