Today is a free download without charge Download

Eagles - Farewell I Tour: Live From Melbourne [2013, Classic rock, blues, country, BDRip 720p]

Reply to topic
 
Author
Message

Omen ®

Longevity: 8 years 3 months

Posts: 181087

Торрент-статистика

Post 28-Feb-2013 16:04

[Quote]

Eagles - Farewell I Tour: Live From Melbourne
Жанр: Classic rock, blues, country
Продолжительность: 02:44:23
Год выпуска:2004/2013-Описание: Эта феноменально успешная группа Eagles, была как саундтрек к жизни целого поколения, и они все еще находят новые аудитории. Этот концерт включает в себя все лучшие хиты Eagles и был записан 14, 15 и 17 ноября 2004 года в Мельбурне во время их прощального турне !-Треклист:
01. The Long Run
02. New Kid In Town
03. Wasted Time
a. Wasted Tim
b. Wasted Time (reprise)
04. Peaceful Easy Feeling
05. I Can't Tell You Why
06. One Of These Nights
07. One Day At A Time (new track!)
08. Lyin' Eyes
09. The Boys Of Summer
10. In The City
11. Already Gone
12. Silent Spring (intro)
13. Tequila Sunrise
14. Love Will Keep Us Alive
15. No More Cloudy Days (new track!)
16. Hole In The World
17. Take It To The Limit
18. You Belong To The City
19. Walk Away
20. Sunset Grill
21. Life's Been Good
22. Dirty Laundry
23. Funk #49
24. Heartache Tonight
25. Life In The Fast Lane
26. Hotel California
27. Rocky Mountain Way
28. All She Wants To Do Is Dance
29. Take It Easy
30. Desperado-Релиз: Исходник: -Качество: BDRip 720p
Контейнер: MKV
Видео кодек: H.264
Аудио кодек: DTS
Видео: MPEG-4 AVC, 1280x720, 16:9, 29.970 fps, 5415 Kbps
Аудио 1: DTS 5.1, 48 kHz, 1509 kbps, 24-bit
Аудио 2: FLAC 2.0, 48 kHz, 1770 Kbps, 24-bit

Доп.информация

Главы сохранены и подписаны по названиям композиций. Аудио дорожка FLAC идет отдельным файлом и полностью совместима с контейнером MKV.
x264 [info]: frame I:2850 Avg QP:16.57 size:138943
x264 [info]: frame P:65723 Avg QP:19.53 size: 48134
x264 [info]: frame B:227029 Avg QP:22.45 size: 13712

Отчёт MediaInfo

ОбщееУникальный идентификатор : 238448173617210292457028711723875379506 (0xB36372A16852B3D5BD7184F7607F2932)Полное имя : D:\Mои раздачи\Eagles-Farewell.I.Tour.(2004).2013.BDRip.(720p)_kaspr\Eagles-Farewell.I.Tour.(2004).2013.BDRip.(720p)_kaspr.mkvФормат : MatroskaВерсия формата : Version 2Размер файла : 7,95 ГбайтПродолжительность : 2 ч. 44 м.Общий поток : 6924 Кбит/секНазвание фильма : Eagles - Farewell I Tour (Rip by kaspr)Дата кодирования : UTC 2013-02-28 08:39:13Программа кодирования : mkvmerge v5.7.0 ('The Whirlwind') built on Aug 7 2012 14:11:40Библиотека кодирования : libebml v1.2.3 + libmatroska v1.3.0
ВидеоИдентификатор : 1Формат : AVCФормат/Информация : Advanced Video CodecПрофиль формата : [email protected]Параметр CABAC формата : ДаПараметр ReFrames формата : 8 кадровИдентификатор кодека : V_MPEG4/ISO/AVCПродолжительность : 2 ч. 44 м.Битрейт : 5415 Кбит/секШирина : 1280 пикселейВысота : 720 пикселейСоотношение сторон : 16:9Режим частоты кадров : ПостоянныйЧастота кадров : 29,970 кадров/секЦветовое пространство : YUVСубдискретизация насыщенности : 4:2:0Битовая глубина : 8 битТип развёртки : ПрогрессивнаяБит/(Пиксели*Кадры) : 0.196Размер потока : 6,06 Гбайт (76%)Заголовок : Eagles - Farewell I Tour (Rip by kaspr)Библиотека кодирования : x264 core 129 r2245 bc13772Настройки программы : cabac=1 / ref=8 / deblock=1:-3:-3 / analyse=0x3:0x133 / me=umh / subme=11 / psy=1 / psy_rd=1.00:0.10 / mixed_ref=1 / me_range=32 / chroma_me=1 / trellis=2 / 8x8dct=1 / cqm=0 / deadzone=21,11 / fast_pskip=0 / chroma_qp_offset=-3 / threads=12 / lookahead_threads=2 / sliced_threads=0 / nr=0 / decimate=0 / interlaced=0 / bluray_compat=0 / constrained_intra=0 / bframes=6 / b_pyramid=2 / b_adapt=2 / b_bias=0 / direct=3 / weightb=1 / open_gop=0 / weightp=2 / keyint=300 / keyint_min=27 / scenecut=40 / intra_refresh=0 / rc_lookahead=40 / rc=2pass / mbtree=1 / bitrate=5415 / ratetol=1.0 / qcomp=0.60 / qpmin=0 / qpmax=69 / qpstep=4 / cplxblur=20.0 / qblur=0.5 / ip_ratio=1.40 / aq=1:1.00Default : ДаForced : Да
АудиоИдентификатор : 2Формат : DTSФормат/Информация : Digital Theater SystemsИдентификатор кодека : A_DTSПродолжительность : 2 ч. 44 м.Вид битрейта : ПостоянныйБитрейт : 1510 Кбит/секКаналы : 6 каналовРасположение каналов : Front: L C R, Side: L R, LFEЧастота : 48,0 КГцБитовая глубина : 24 битМетод сжатия : С потерямиРазмер потока : 1,73 Гбайт (22%)Заголовок : DTS 6ch 1510 Кбит/cЯзык : EnglishDefault : ДаForced : Да
Меню00:00:00.000 : en:Intro00:01:35.361 : en:The Long Run00:06:26.719 : en:New Kid In Town00:11:29.388 : en:Wasted Time00:17:41.493 : en:Peaceful Easy Feeling00:22:06.024 : en:I Can't Tell You Why00:27:05.824 : en:One Of These Nights00:31:59.484 : en:One Day At A Time (new track!)00:36:19.844 : en:Lyin' Eyes00:42:49.033 : en:The Boys Of Summer00:47:54.671 : en:In The City00:52:26.076 : en:Already Gone00:57:01.117 : en:Silent Spring (intro)00:57:37.220 : en:Tequila Sunrise01:01:07.730 : en:Love Will Keep Us Alive01:05:44.640 : en:No More Cloudy Days (new track!)01:10:44.807 : en:Hole In The World01:15:17.045 : en:Take It To The Limit01:19:17.252 : en:You Belong To The City01:26:39.160 : en:Walk Away01:30:35.029 : en:Sunset Grill01:39:31.432 : en:Life's Been Good01:47:19.266 : en:Dirty Laundry01:53:36.309 : en:Funk #4901:58:50.022 : en:Heartache Tonight02:03:57.296 : en:Life In The Fast Lane02:10:23.715 : en:Hotel California02:19:24.656 : en:Rocky Mountain Way02:25:15.940 : en:All She Wants To Do Is Dance02:31:42.093 : en:Take It Easy02:35:32.690 : en:Desperado02:40:05.395 : en:End
ОбщееПолное имя : D:\Mои раздачи\Eagles-Farewell.I.Tour.(2004).2013.BDRip.(720p)_kaspr\Еagles Farewell.1.Tour.(FLAC).flacФормат : FLACФормат/Информация : Free Lossless Audio CodecРазмер файла : 2,03 ГбайтПродолжительность : 2 ч. 44 м.Режим общего битрейта : ПеременныйОбщий поток : 1770 Кбит/сек
АудиоФормат : FLACФормат/Информация : Free Lossless Audio CodecПродолжительность : 2 ч. 44 м.Вид битрейта : ПеременныйБитрейт : 1770 Кбит/секКаналы : 2 каналаЧастота : 48,0 КГцБитовая глубина : 24 битРазмер потока : 2,03 Гбайт (100%)Библиотека кодирования : libFLAC 1.2.1 (UTC 2007-09-17)

Скриншоты


Other forum [Profile] [PM]
Display posts from previous:    
Reply to topic

The time now is: Today 12:12

All times are GMT + 3 Hours



You cannot post new topics in this forum
You cannot reply to topics in this forum
You cannot edit your posts in this forum
You cannot delete your posts in this forum
You cannot vote in polls in this forum
You cannot attach files in this forum
You cannot download files in this forum