Today is a free download without charge Download

Дарю тебе звезду (Федор Хитрук) [1974, Мультфильм, DVB-AVC]

Reply to topic
 
Author
Message

Omen ®

Longevity: 7 years 11 months

Posts: 181087

Торрент-статистика

Post 27-Feb-2013 23:40

[Quote]

Дарю тебе звезду
Жанр: Мультфильм
Год выпуска: 1981
Продолжительность: 00:07:58
Режиссёр: Федор Хитрук
Описание: Комедия, где в шутливой форме затрагивается проблема о положении женщины в семье. Фильм состоит из четырёх новелл, объединенных одними и теми же героями: Мужчиной и Женщиной, живущими в разные эпохи ...
Доп. информация: XXVIII МКФ в Каннах, 1975 -- Специальная премия Жюри конкурса короткометражных фильмов; Госпремия СССР за 1976 г режиссеру Ф.Хитруку (вместе с фильмами о Винни-Пухе)
мультфильм для взрослых.

Релиз спутникового канала:
Качество видео: DVB
Формат видео: MPEG-TS
Видео: MPEG4 Video (H264), [email protected] (4:3), анаморф, 25 fps, 4700 kbps
Аудио: MPEG Audio, 2 сh, 48 kHz, 192 kbps

MediaInfo

General
ID : 1
Complete name : O:\SAT\MULT\Дарю тебе звезду. (1974)_DVB by SLuMeP.ts
Format : MPEG-TS
File size : 292 MiB
Duration : 7mn 58s
Overall bit rate : 5 127 Kbps
Video
ID : 1121 (0x461)
Menu ID : 1 (0x1)
Format : AVC
Format/Info : Advanced Video Codec
Format profile : [email protected]
Format settings, CABAC : Yes
Format settings, ReFrames : 3 frames
Format settings, GOP : M=1, N=49
Codec ID : 27
Duration : 7mn 58s
Bit rate : 4 680 Kbps
Width : 720 pixels
Height : 576 pixels
Display aspect ratio : 4:3
Frame rate : 25.000 fps
Standard : Component
Color space : YUV
Chroma subsampling : 4:2:0
Bit depth : 8 bits
Scan type : Interlaced
Scan order : Top Field First
Bits/(Pixel*Frame) : 0.451
Stream size : 267 MiB (91%)
Color primaries : BT.470-6 System B, BT.470-6 System G, BT.601-6 625, BT.1358 625, BT.1700 625 PAL, BT.1700 625 SECAM
Transfer characteristics : BT.470-6 System B, BT.470-6 System G
Matrix coefficients : BT.470-6 System B, BT.470-6 System G, BT.601-6 625, BT.1358 625, BT.1700 625 PAL, BT.1700 625 SECAM, IEC 61966-2-4 601
Audio
ID : 1122 (0x462)
Menu ID : 1 (0x1)
Format : MPEG Audio
Format version : Version 1
Format profile : Layer 2
Codec ID : 3
Duration : 7mn 58s
Bit rate mode : Constant
Bit rate : 192 Kbps
Channel(s) : 2 channels
Sampling rate : 48.0 KHz
Video delay : -40ms
Stream size : 10.9 MiB (4%)
Language : English

Скриншоты

Other forum [Profile] [PM]
Display posts from previous:    
Reply to topic

The time now is: Today 19:12

All times are GMT + 3 Hours



You cannot post new topics in this forum
You cannot reply to topics in this forum
You cannot edit your posts in this forum
You cannot delete your posts in this forum
You cannot vote in polls in this forum
You cannot attach files in this forum
You cannot download files in this forum