Today is a free download without charge Download

Икар и мудрецы (Федор Хитрук) [1976 г., притча, DVB-AVC]

Reply to topic
 
Author
Message

Omen ®

Longevity: 7 years 11 months

Posts: 181087

Торрент-статистика

Post 27-Feb-2013 23:40

[Quote]

Икар и мудрецы
Жанр: притча
Год выпуска: 1976
Продолжительность: 00:07:41
Режиссёр: Федор Хитрук
Описание: В античном обществе жизнь течет спокойно и неспешно. Каждый нашёл уже своё место в жизни. Люди посвящают досуг философским беседам — о смысле бытия и прочем. Но среди них живет чудак — Икар, который пытается воплотить в жизнь безумную, с точки зрения прогрессивного античного общества, идею: научиться летать подобно птицам. Естественно, все его попытки кончаются падением с небес на землю. На каждое такое падение очередной мудрец выдает неоспоримую истину, например, «Quod licet Jovi, non licet bovi» («Что позволено Юпитеру, то не позволено быку»). Подобные изречения превращаются в гранитные памятники и падают на голову Икару. Но однажды всё-таки произошло чудо, и Икар взмыл к небесам…

Латинские изречения, использованные в мультфильме

Qvod licet Jovi, non licet bovi — Что позволено Юпитеру, не позволено быку
Pes sic tendatur ne lodix protereatur — По одёжке протягивай ножки
Festina lente — Тише едешь — дальше будешь (Спеши медленно)
Mensura omnium rerum optima — Есть мера для всего
Est avis in dextra (melior quam quattuor extra) — Лучше синица в руке (чем журавль в небе)
Ne sutor supra crepidam (judicet) — Всяк сверчок знай свой шесток
Via trita via tuta — Проторённый путь безопасен (Выше головы не прыгнешь)
Quo altior grapus tanto profundior casus — Чем выше поднимаешься, тем глубже падать
Bene qui stat non moveatur — Кто хорошо стоит, тому не нужно двигаться (надпись на памятнике Икару)
Доп. информация:

Релиз спутникового канала:
Качество видео: DVB
Формат видео: MPEG-TS
Видео: MPEG4 Video (H264), [email protected] (4:3), анаморф, 25 fps, 4500 kbps
Аудио: MPEG Audio, 2 сh, 48 kHz, 192 kbps

MediaInfo

General
ID : 1
Complete name : O:\SAT\MULT\Икар и мудрецы. (1976)_DVB by SLuMeP.ts
Format : MPEG-TS
File size : 274 MiB
Duration : 7mn 41s
Overall bit rate : 4 974 Kbps
Video
ID : 1121 (0x461)
Menu ID : 1 (0x1)
Format : AVC
Format/Info : Advanced Video Codec
Format profile : [email protected]
Format settings, CABAC : Yes
Format settings, ReFrames : 3 frames
Format settings, GOP : M=1, N=15
Codec ID : 27
Duration : 7mn 41s
Bit rate : 4 534 Kbps
Width : 720 pixels
Height : 576 pixels
Display aspect ratio : 4:3
Frame rate : 25.000 fps
Standard : Component
Color space : YUV
Chroma subsampling : 4:2:0
Bit depth : 8 bits
Scan type : Interlaced
Scan order : Top Field First
Bits/(Pixel*Frame) : 0.437
Stream size : 249 MiB (91%)
Color primaries : BT.470-6 System B, BT.470-6 System G, BT.601-6 625, BT.1358 625, BT.1700 625 PAL, BT.1700 625 SECAM
Transfer characteristics : BT.470-6 System B, BT.470-6 System G
Matrix coefficients : BT.470-6 System B, BT.470-6 System G, BT.601-6 625, BT.1358 625, BT.1700 625 PAL, BT.1700 625 SECAM, IEC 61966-2-4 601
Audio
ID : 1122 (0x462)
Menu ID : 1 (0x1)
Format : MPEG Audio
Format version : Version 1
Format profile : Layer 2
Codec ID : 3
Duration : 7mn 41s
Bit rate mode : Constant
Bit rate : 192 Kbps
Channel(s) : 2 channels
Sampling rate : 48.0 KHz
Video delay : -40ms
Stream size : 10.6 MiB (4%)
Language : English

Скриншоты

Other forum [Profile] [PM]
Display posts from previous:    
Reply to topic

The time now is: Today 15:14

All times are GMT + 3 Hours



You cannot post new topics in this forum
You cannot reply to topics in this forum
You cannot edit your posts in this forum
You cannot delete your posts in this forum
You cannot vote in polls in this forum
You cannot attach files in this forum
You cannot download files in this forum