Today is a free download without charge Download

Avril Lavigne HDTV Collection [2002-2012, Pop]

Reply to topic
 
Author
Message

Omen ®

Longevity: 8 years 3 months

Posts: 181087

Торрент-статистика

Post 27-Feb-2013 23:40

[Quote]

Avril Lavigne HDTV Collection
Жанр: Pop
Год выпуска: 2002-2012

720p

'Alice In Wonderland' Royal World Premiere, London (25.02.2010)

MediaInfo

GeneralComplete name : C:\720p\'Alice In Wonderland' Royal World Premiere, London (25.02.2010).mpgFormat : MPEG-PSFile size : 199 MiBDuration : 1mn 28sOverall bit rate mode : VariableOverall bit rate : 19.0 Mbps
VideoID : 224 (0xE0)Format : MPEG VideoCommercial name : HDV 720pFormat version : Version 2Format profile : [email protected] settings, BVOP : YesFormat settings, Matrix : CustomFormat settings, GOP : M=3, N=24Duration : 1mn 28sBit rate mode : VariableBit rate : 18.3 MbpsWidth : 1 280 pixelsHeight : 720 pixelsDisplay aspect ratio : 16:9Frame rate : 50.000 fpsStandard : ComponentColor space : YUVChroma subsampling : 4:2:0Bit depth : 8 bitsScan type : ProgressiveCompression mode : LossyBits/(Pixel*Frame) : 0.397Time code of first frame : 00:00:00:00Time code source : Group of pictures headerStream size : 190 MiB (96%)
AudioID : 189 (0xBD)-128 (0x80)Format : AC-3Format/Info : Audio Coding 3Mode extension : CM (complete main)Format settings, Endianness : BigMuxing mode : DVD-VideoDuration : 1mn 28sBit rate mode : ConstantBit rate : 448 KbpsChannel(s) : 2 channelsChannel positions : Front: L RSampling rate : 48.0 KHzBit depth : 16 bitsCompression mode : LossyStream size : 4.70 MiB (2%)

Скриншоты


American Music Awards - Hot (18.11.2007)

MediaInfo

GeneralID : 1 (0x1)Complete name : C:\720p\American Music Awards - Hot (18.11.2007).tsFormat : MPEG-TSFile size : 1.21 GiBDuration : 4mn 20sOverall bit rate mode : VariableOverall bit rate : 40.1 Mbps
VideoID : 17 (0x11)Menu ID : 1 (0x1)Format : MPEG VideoFormat version : Version 2Format profile : [email protected] settings, BVOP : YesFormat settings, Matrix : CustomFormat settings, GOP : M=3, N=30Codec ID : 2Duration : 4mn 20sBit rate mode : VariableBit rate : 37.4 MbpsMaximum bit rate : 38.5 MbpsWidth : 1 280 pixelsHeight : 720 pixelsDisplay aspect ratio : 16:9Frame rate : 59.940 fpsStandard : ComponentColor space : YUVChroma subsampling : 4:2:0Bit depth : 8 bitsScan type : ProgressiveCompression mode : LossyBits/(Pixel*Frame) : 0.677Time code of first frame : 00:00:00:00Time code source : Group of pictures headerStream size : 1.13 GiB (93%)
AudioID : 20 (0x14)Menu ID : 1 (0x1)Format : AC-3Format/Info : Audio Coding 3Mode extension : CM (complete main)Format settings, Endianness : BigCodec ID : 129Duration : 4mn 20sBit rate mode : ConstantBit rate : 640 KbpsChannel(s) : 6 channelsChannel positions : Front: L C R, Side: L R, LFESampling rate : 48.0 KHzBit depth : 16 bitsCompression mode : LossyStream size : 19.9 MiB (2%)

Скриншоты


Dancing With The Stars (20.11.2007)

1 Hot

MediaInfo

GeneralComplete name : C:\720p\Dancing With The Stars (20.11.2007)\1 Hot.mpgFormat : MPEG-PSFile size : 375 MiBDuration : 3mn 51sOverall bit rate mode : VariableOverall bit rate : 13.6 Mbps
VideoID : 224 (0xE0)Format : MPEG VideoFormat version : Version 2Format profile : [email protected] settings, BVOP : YesFormat settings, Matrix : DefaultFormat settings, GOP : M=3, N=30Duration : 3mn 51sBit rate mode : VariableBit rate : 12.9 MbpsMaximum bit rate : 80.0 MbpsWidth : 1 280 pixelsHeight : 720 pixelsDisplay aspect ratio : 16:9Frame rate : 59.940 fpsColor space : YUVChroma subsampling : 4:2:0Bit depth : 8 bitsScan type : ProgressiveCompression mode : LossyBits/(Pixel*Frame) : 0.234Time code of first frame : 00:00:00:00Time code source : Group of pictures headerStream size : 357 MiB (95%)
AudioID : 189 (0xBD)-128 (0x80)Format : AC-3Format/Info : Audio Coding 3Mode extension : CM (complete main)Format settings, Endianness : BigMuxing mode : DVD-VideoDuration : 3mn 51sBit rate mode : ConstantBit rate : 384 KbpsChannel(s) : 6 channelsChannel positions : Front: L C R, Side: L R, LFESampling rate : 48.0 KHzBit depth : 16 bitsCompression mode : LossyStream size : 10.6 MiB (3%)
Text #1ID : 224 (0xE0)-CC1Format : EIA-608Muxing mode : A/53 / DTVCC TransportMuxing mode, more info : Muxed in Video #1Bit rate mode : ConstantStream size : 0.00 Byte (0%)
Text #2ID : 224 (0xE0)-CC4Format : EIA-608Muxing mode : A/53 / DTVCC TransportMuxing mode, more info : Muxed in Video #1Bit rate mode : ConstantStream size : 0.00 Byte (0%)
Text #3ID : 224 (0xE0)-1Format : EIA-708Muxing mode : A/53 / DTVCC TransportMuxing mode, more info : Muxed in Video #1Bit rate mode : ConstantStream size : 0.00 Byte (0%)

Скриншоты


2 Complicated

MediaInfo

GeneralComplete name : C:\720p\Dancing With The Stars (20.11.2007)\2 Complicated.mpgFormat : MPEG-PSFile size : 338 MiBDuration : 3mn 35sOverall bit rate mode : VariableOverall bit rate : 13.2 Mbps
VideoID : 224 (0xE0)Format : MPEG VideoFormat version : Version 2Format profile : [email protected] settings, BVOP : YesFormat settings, Matrix : DefaultFormat settings, GOP : M=3, N=30Duration : 3mn 35sBit rate mode : VariableBit rate : 12.5 MbpsMaximum bit rate : 80.0 MbpsWidth : 1 280 pixelsHeight : 720 pixelsDisplay aspect ratio : 16:9Frame rate : 59.940 fpsColor space : YUVChroma subsampling : 4:2:0Bit depth : 8 bitsScan type : ProgressiveCompression mode : LossyBits/(Pixel*Frame) : 0.226Time code of first frame : 00:00:00:00Time code source : Group of pictures headerStream size : 321 MiB (95%)
AudioID : 189 (0xBD)-128 (0x80)Format : AC-3Format/Info : Audio Coding 3Mode extension : CM (complete main)Format settings, Endianness : BigMuxing mode : DVD-VideoDuration : 3mn 35sBit rate mode : ConstantBit rate : 384 KbpsChannel(s) : 6 channelsChannel positions : Front: L C R, Side: L R, LFESampling rate : 48.0 KHzBit depth : 16 bitsCompression mode : LossyStream size : 9.86 MiB (3%)
Text #1ID : 224 (0xE0)-CC1Format : EIA-608Muxing mode : A/53 / DTVCC TransportMuxing mode, more info : Muxed in Video #1Bit rate mode : ConstantStream size : 0.00 Byte (0%)
Text #2ID : 224 (0xE0)-1Format : EIA-708Muxing mode : A/53 / DTVCC TransportMuxing mode, more info : Muxed in Video #1Bit rate mode : ConstantStream size : 0.00 Byte (0%)

Скриншоты


Daybreak - What The Hell (15.02.2011)

MediaInfo

GeneralComplete name : C:\720p\Daybreak - What The Hell (15.02.2011).aviFormat : AVIFormat/Info : Audio Video InterleaveFile size : 252 MiBDuration : 2mn 52sOverall bit rate : 12.2 MbpsWriting application : Lavf52.32.0
VideoID : 0Format : MPEG-4 VisualFormat profile : [email protected] settings, BVOP : NoFormat settings, QPel : NoFormat settings, GMC : No warppointsFormat settings, Matrix : Default (H.263)Codec ID : FMP4Duration : 2mn 52sBit rate : 12.0 MbpsWidth : 1 280 pixelsHeight : 720 pixelsDisplay aspect ratio : 16:9Frame rate : 25.000 fpsColor space : YUVChroma subsampling : 4:2:0Bit depth : 8 bitsScan type : ProgressiveCompression mode : LossyBits/(Pixel*Frame) : 0.522Stream size : 247 MiB (98%)Writing library : Lavc52.27.0
AudioID : 1Format : MPEG AudioFormat version : Version 1Format profile : Layer 3Mode : Joint stereoMode extension : MS StereoCodec ID : 55Codec ID/Hint : MP3Duration : 2mn 51sBit rate mode : ConstantBit rate : 192 KbpsChannel(s) : 2 channelsSampling rate : 44.1 KHzCompression mode : LossyStream size : 3.93 MiB (2%)Alignment : Aligned on interleavesInterleave, duration : 26 ms (0.66 video frame)

Скриншоты


Dick Clark's New Year's Rockin' Eve With Ryan Seacrest (31.12.2010)

1 Girlfriend

MediaInfo

GeneralID : 1 (0x1)Complete name : C:\720p\Dick Clark's New Year's Rockin' Eve With Ryan Seacrest (31.12.2010)\1 Girlfriend.tsFormat : MPEG-TSFile size : 690 MiBDuration : 4mn 0sOverall bit rate mode : VariableOverall bit rate : 24.1 MbpsMaximum Overall bit rate : 35.5 Mbps
VideoID : 4113 (0x1011)Menu ID : 1 (0x1)Format : AVCFormat/Info : Advanced Video CodecFormat profile : [email protected] settings, CABAC : YesFormat settings, ReFrames : 4 framesCodec ID : 27Duration : 4mn 0sBit rate mode : VariableBit rate : 22.2 MbpsMaximum bit rate : 40.0 MbpsWidth : 1 280 pixelsHeight : 720 pixelsDisplay aspect ratio : 16:9Frame rate : 59.940 fpsColor space : YUVChroma subsampling : 4:2:0Bit depth : 8 bitsScan type : ProgressiveBits/(Pixel*Frame) : 0.403Stream size : 638 MiB (92%)Color primaries : BT.709Transfer characteristics : BT.709Matrix coefficients : BT.709
AudioID : 4352 (0x1100)Menu ID : 1 (0x1)Format : AC-3Format/Info : Audio Coding 3Mode extension : CM (complete main)Format settings, Endianness : BigCodec ID : 129Duration : 4mn 0sBit rate mode : ConstantBit rate : 640 KbpsChannel(s) : 6 channelsChannel positions : Front: L C R, Side: L R, LFESampling rate : 48.0 KHzBit depth : 16 bitsCompression mode : LossyDelay relative to video : 29msStream size : 18.4 MiB (3%)Language : English
Text #1ID : 4113 (0x1011)-CC1Menu ID : 1 (0x1)Format : EIA-608Muxing mode : SCTE 128 / DTVCC TransportMuxing mode, more info : Muxed in Video #1Duration : 4mn 0sBit rate mode : ConstantStream size : 0.00 Byte (0%)
Text #2ID : 4113 (0x1011)-1Menu ID : 1 (0x1)Format : EIA-708Muxing mode : SCTE 128 / DTVCC TransportMuxing mode, more info : Muxed in Video #1Duration : 4mn 0sBit rate mode : ConstantStream size : 0.00 Byte (0%)

Скриншоты


2 What The Hell

MediaInfo

GeneralID : 1 (0x1)Complete name : C:\720p\Dick Clark's New Year's Rockin' Eve With Ryan Seacrest (31.12.2010)\2 What The Hell.tsFormat : MPEG-TSFile size : 713 MiBDuration : 4mn 8sOverall bit rate mode : VariableOverall bit rate : 24.1 MbpsMaximum Overall bit rate : 35.5 Mbps
VideoID : 4113 (0x1011)Menu ID : 1 (0x1)Format : AVCFormat/Info : Advanced Video CodecFormat profile : [email protected] settings, CABAC : YesFormat settings, ReFrames : 4 framesCodec ID : 27Duration : 4mn 8sBit rate mode : VariableBit rate : 22.3 MbpsMaximum bit rate : 40.0 MbpsWidth : 1 280 pixelsHeight : 720 pixelsDisplay aspect ratio : 16:9Frame rate : 59.940 fpsColor space : YUVChroma subsampling : 4:2:0Bit depth : 8 bitsScan type : ProgressiveBits/(Pixel*Frame) : 0.403Stream size : 659 MiB (92%)Color primaries : BT.709Transfer characteristics : BT.709Matrix coefficients : BT.709
AudioID : 4352 (0x1100)Menu ID : 1 (0x1)Format : AC-3Format/Info : Audio Coding 3Mode extension : CM (complete main)Format settings, Endianness : BigCodec ID : 129Duration : 4mn 8sBit rate mode : ConstantBit rate : 640 KbpsChannel(s) : 6 channelsChannel positions : Front: L C R, Side: L R, LFESampling rate : 48.0 KHzBit depth : 16 bitsCompression mode : LossyDelay relative to video : 3msStream size : 18.9 MiB (3%)Language : English
Text #1ID : 4113 (0x1011)-CC1Menu ID : 1 (0x1)Format : EIA-608Muxing mode : SCTE 128 / DTVCC TransportMuxing mode, more info : Muxed in Video #1Duration : 4mn 8sBit rate mode : ConstantStream size : 0.00 Byte (0%)
Text #2ID : 4113 (0x1011)-CC2Menu ID : 1 (0x1)Format : EIA-608Muxing mode : SCTE 128 / DTVCC TransportMuxing mode, more info : Muxed in Video #1Duration : 4mn 8sBit rate mode : ConstantStream size : 0.00 Byte (0%)
Text #3ID : 4113 (0x1011)-1Menu ID : 1 (0x1)Format : EIA-708Muxing mode : SCTE 128 / DTVCC TransportMuxing mode, more info : Muxed in Video #1Duration : 4mn 8sBit rate mode : ConstantStream size : 0.00 Byte (0%)
Text #4ID : 4113 (0x1011)-2Menu ID : 1 (0x1)Format : EIA-708Muxing mode : SCTE 128 / DTVCC TransportMuxing mode, more info : Muxed in Video #1Duration : 4mn 8sBit rate mode : ConstantStream size : 0.00 Byte (0%)

Скриншоты


Jimmy Kimmel Live! (15.03.2011)

1 What The Hell

MediaInfo

GeneralComplete name : C:\720p\Jimmy Kimmel Live! (15.03.2011)\1 What The Hell.aviFormat : AVIFormat/Info : Audio Video InterleaveFile size : 332 MiBDuration : 3mn 58sOverall bit rate : 11.7 MbpsWriting application : Lavf52.32.0
VideoID : 0Format : xvidCodec ID : xvidDuration : 3mn 58sBit rate : 11.5 MbpsWidth : 1 280 pixelsHeight : 720 pixelsDisplay aspect ratio : 16:9Frame rate : 59.750 fpsBits/(Pixel*Frame) : 0.208Stream size : 326 MiB (98%)
AudioID : 1Format : MPEG AudioFormat version : Version 1Format profile : Layer 3Mode : Joint stereoMode extension : MS StereoCodec ID : 55Codec ID/Hint : MP3Duration : 3mn 58sBit rate mode : ConstantBit rate : 192 KbpsChannel(s) : 2 channelsSampling rate : 44.1 KHzCompression mode : LossyStream size : 5.46 MiB (2%)Alignment : Aligned on interleavesInterleave, duration : 26 ms (1.56 video frames)

Скриншоты


2 Push

MediaInfo

GeneralComplete name : C:\720p\Jimmy Kimmel Live! (15.03.2011)\2 Push.aviFormat : AVIFormat/Info : Audio Video InterleaveFile size : 263 MiBDuration : 3mn 14sOverall bit rate : 11.4 MbpsWriting application : Lavf52.32.0
VideoID : 0Format : xvidCodec ID : xvidDuration : 3mn 14sBit rate : 11.2 MbpsWidth : 1 280 pixelsHeight : 720 pixelsDisplay aspect ratio : 16:9Frame rate : 29.917 fpsBits/(Pixel*Frame) : 0.405Stream size : 258 MiB (98%)
AudioID : 1Format : MPEG AudioFormat version : Version 1Format profile : Layer 3Mode : Joint stereoMode extension : MS StereoCodec ID : 55Codec ID/Hint : MP3Duration : 3mn 14sBit rate mode : ConstantBit rate : 192 KbpsChannel(s) : 2 channelsSampling rate : 44.1 KHzCompression mode : LossyStream size : 4.44 MiB (2%)Alignment : Aligned on interleavesInterleave, duration : 26 ms (0.78 video frame)

Скриншоты


What The Hell + Push

MediaInfo

GeneralID : 1 (0x1)Complete name : C:\720p\Jimmy Kimmel Live! (15.03.2011)\What The Hell + Push.tsFormat : MPEG-TSFile size : 668 MiBDuration : 5mn 12sOverall bit rate mode : VariableOverall bit rate : 17.9 Mbps
VideoID : 49 (0x31)Menu ID : 1 (0x1)Format : MPEG VideoCommercial name : HDV 720pFormat version : Version 2Format profile : [email protected] settings, BVOP : YesFormat settings, Matrix : CustomFormat settings, GOP : M=3, N=15Codec ID : 2Duration : 5mn 12sBit rate mode : VariableBit rate : 16.6 MbpsMaximum bit rate : 17.1 MbpsWidth : 1 280 pixelsHeight : 720 pixelsDisplay aspect ratio : 16:9Frame rate : 59.940 fpsColor space : YUVChroma subsampling : 4:2:0Bit depth : 8 bitsScan type : ProgressiveCompression mode : LossyBits/(Pixel*Frame) : 0.301Time code of first frame : 00:00:00;00Time code source : Group of pictures headerStream size : 620 MiB (93%)
AudioID : 52 (0x34)Menu ID : 1 (0x1)Format : AC-3Format/Info : Audio Coding 3Mode extension : CM (complete main)Format settings, Endianness : BigCodec ID : 129Duration : 5mn 12sBit rate mode : ConstantBit rate : 384 KbpsChannel(s) : 6 channelsChannel positions : Front: L C R, Side: L R, LFESampling rate : 48.0 KHzBit depth : 16 bitsCompression mode : LossyDelay relative to video : 6msStream size : 14.3 MiB (2%)Language : English
Text #1ID : 49 (0x31)-CC1Menu ID : 1 (0x1)Format : EIA-608Muxing mode : A/53 / DTVCC TransportMuxing mode, more info : Muxed in Video #1Duration : 5mn 12sBit rate mode : ConstantStream size : 0.00 Byte (0%)
Text #2ID : 49 (0x31)-1Menu ID : 1 (0x1)Format : EIA-708Muxing mode : A/53 / DTVCC TransportMuxing mode, more info : Muxed in Video #1Duration : 5mn 12sBit rate mode : ConstantStream size : 0.00 Byte (0%)
Text #3ID : 49 (0x31)-2Menu ID : 1 (0x1)Format : EIA-708Muxing mode : A/53 / DTVCC TransportMuxing mode, more info : Muxed in Video #1Duration : 5mn 12sBit rate mode : ConstantStream size : 0.00 Byte (0%)

Скриншоты


Kohl's Ad - Abbey Dawn Bus (25.07.2009)

MediaInfo

GeneralID : 1 (0x1)Complete name : C:\720p\Kohl's Ad - Abbey Dawn Bus (25.07.2009).tsFormat : MPEG-TSFile size : 51.1 MiBDuration : 30s 347msOverall bit rate mode : VariableOverall bit rate : 14.1 Mbps
VideoID : 17 (0x11)Menu ID : 1 (0x1)Format : MPEG VideoFormat version : Version 2Format profile : [email protected] settings, BVOP : YesFormat settings, Matrix : DefaultFormat settings, GOP : M=3, N=27Codec ID : 2Duration : 30s 13msBit rate mode : VariableBit rate : 13.0 MbpsMaximum bit rate : 38.8 MbpsWidth : 1 280 pixelsHeight : 720 pixelsDisplay aspect ratio : 16:9Frame rate : 59.940 fpsStandard : ComponentColor space : YUVChroma subsampling : 4:2:0Bit depth : 8 bitsScan type : ProgressiveCompression mode : LossyBits/(Pixel*Frame) : 0.236Time code of first frame : 00:00:00;00Time code source : Group of pictures headerStream size : 46.6 MiB (91%)Color primaries : BT.601 PALTransfer characteristics : BT.470 System B, BT.470 System GMatrix coefficients : BT.601
AudioID : 20 (0x14)Menu ID : 1 (0x1)Format : AC-3Format/Info : Audio Coding 3Mode extension : CM (complete main)Format settings, Endianness : BigCodec ID : 129Duration : 30s 16msBit rate mode : ConstantBit rate : 384 KbpsChannel(s) : 6 channelsChannel positions : Front: L C R, Side: L R, LFESampling rate : 48.0 KHzBit depth : 16 bitsCompression mode : LossyStream size : 1.37 MiB (3%)Language : English
TextID : 17 (0x11)-2Menu ID : 1 (0x1)Format : EIA-708Muxing mode : A/53 / DTVCC TransportMuxing mode, more info : Muxed in Video #1Duration : 30s 13msBit rate mode : ConstantStream size : 0.00 Byte (0%)

Скриншоты


Les Victoires de la Musique - What The Hell (09.02.2011)

MediaInfo

GeneralUnique ID : 231637980192521429078164076472799663709 (0xAE43DA2BCFD3F7958DF0DB5B80D1165D)Complete name : C:\720p\Les Victoires de la Musique - What The Hell (09.02.2011).mkvFormat : MatroskaFormat version : Version 2File size : 125 MiBDuration : 3mn 49sOverall bit rate : 4 561 KbpsEncoded date : UTC 2011-02-18 07:46:19Writing application : mkvmerge v4.4.0 ('Die Wiederkehr') built on Oct 31 2010 21:52:48Writing library : libebml v1.0.0 + libmatroska v1.0.0
VideoID : 1Format : AVCFormat/Info : Advanced Video CodecFormat profile : [email protected] settings, CABAC : YesFormat settings, ReFrames : 3 framesMuxing mode : Header strippingCodec ID : V_MPEG4/ISO/AVCDuration : 3mn 49sBit rate : 4 246 KbpsWidth : 1 280 pixelsHeight : 720 pixelsDisplay aspect ratio : 16:9Frame rate mode : ConstantFrame rate : 25.000 fpsColor space : YUVChroma subsampling : 4:2:0Bit depth : 8 bitsScan type : ProgressiveBits/(Pixel*Frame) : 0.184Stream size : 116 MiB (93%)Writing library : x264 core 93 r1538bm bd72d46Encoding settings : cabac=1 / ref=3 / deblock=1:0:0 / analyse=0x3:0x13 / me=umh / subme=7 / psy=1 / psy_rd=1.00:0.00 / mixed_ref=1 / me_range=16 / chroma_me=1 / trellis=1 / 8x8dct=1 / cqm=0 / deadzone=21,11 / fast_pskip=1 / chroma_qp_offset=-2 / threads=4 / sliced_threads=1 / slices=4 / nr=0 / decimate=1 / interlaced=0 / constrained_intra=0 / bframes=0 / wpredp=2 / keyint=250 / keyint_min=25 / scenecut=40 / intra_refresh=0 / rc=crf / mbtree=0 / crf=24.0 / qcomp=0.60 / qpmin=10 / qpmax=51 / qpstep=4 / ip_ratio=1.40 / aq=1:1.00Default : YesForced : No
AudioID : 2Format : AC-3Format/Info : Audio Coding 3Mode extension : CM (complete main)Format settings, Endianness : BigMuxing mode : Header strippingCodec ID : A_AC3Duration : 3mn 49sBit rate mode : ConstantBit rate : 224 KbpsChannel(s) : 2 channelsChannel positions : Front: L RSampling rate : 48.0 KHzBit depth : 16 bitsCompression mode : LossyStream size : 6.14 MiB (5%)Default : YesForced : No

Скриншоты


Live From The Roxy Theater, Los Angeles (16.10.2007)

MediaInfo

GeneralID : 16 (0x10)Complete name : C:\720p\Live From The Roxy Theater, Los Angeles (16.10.2007).tsFormat : MPEG-TSFile size : 4.26 GiBDuration : 50mn 28sOverall bit rate mode : VariableOverall bit rate : 12.1 Mbps
VideoID : 1601 (0x641)Menu ID : 129 (0x81)Format : AVCFormat/Info : Advanced Video CodecFormat profile : [email protected] settings, CABAC : YesFormat settings, ReFrames : 2 framesFormat settings, GOP : M=3, N=12Codec ID : 27Duration : 50mn 28sBit rate mode : VariableBit rate : 11.0 MbpsMaximum bit rate : 1 652 KbpsWidth : 1 280 pixelsHeight : 720 pixelsDisplay aspect ratio : 16:9Frame rate : 50.000 fpsColor space : YUVChroma subsampling : 4:2:0Bit depth : 8 bitsScan type : ProgressiveBits/(Pixel*Frame) : 0.239Stream size : 3.89 GiB (91%)Color primaries : BT.709Transfer characteristics : BT.709Matrix coefficients : BT.709
Audio #1ID : 1602 (0x642)Menu ID : 129 (0x81)Format : MPEG AudioFormat version : Version 1Format profile : Layer 2Codec ID : 4Duration : 50mn 28sBit rate mode : ConstantBit rate : 192 KbpsChannel(s) : 2 channelsSampling rate : 48.0 KHzCompression mode : LossyDelay relative to video : 182msStream size : 69.3 MiB (2%)
Audio #2ID : 1606 (0x646)Menu ID : 129 (0x81)Format : AC-3Format/Info : Audio Coding 3Mode extension : CM (complete main)Format settings, Endianness : BigCodec ID : 129Duration : 50mn 28sBit rate mode : ConstantBit rate : 256 KbpsChannel(s) : 2 channelsChannel positions : Front: L RSampling rate : 48.0 KHzBit depth : 16 bitsCompression mode : LossyDelay relative to video : 26msStream size : 92.4 MiB (2%)

Скриншоты


Music Lovers (21.05.2007)

MediaInfo

GeneralID : 0 (0x0)Complete name : C:\720p\Music Lovers (21.05.2007).tsFormat : MPEG-TSCommercial name : HDV 720pFile size : 2.53 GiBDuration : 20mn 55sOverall bit rate mode : ConstantOverall bit rate : 17.3 Mbps
VideoID : 512 (0x200)Menu ID : 1 (0x1)Format : MPEG VideoCommercial name : HDV 720pFormat version : Version 2Format profile : [email protected] settings, BVOP : YesFormat settings, Matrix : CustomFormat settings, GOP : M=3, N=18Codec ID : 2Duration : 20mn 54sBit rate : 16.1 MbpsMaximum bit rate : 15.0 MbpsWidth : 1 280 pixelsHeight : 720 pixelsDisplay aspect ratio : 16:9Frame rate : 59.940 fpsStandard : ComponentColor space : YUVChroma subsampling : 4:2:0Bit depth : 8 bitsScan type : ProgressiveCompression mode : LossyBits/(Pixel*Frame) : 0.291Time code of first frame : 00:00:00:00Time code source : Group of pictures headerStream size : 2.35 GiB (93%)Writing library : TMPGEnc XPress 4.2.10.211Color primaries : BT.709Transfer characteristics : BT.709Matrix coefficients : BT.709
AudioID : 513 (0x201)Menu ID : 1 (0x1)Format : MPEG AudioFormat version : Version 1Format profile : Layer 2Codec ID : 3Duration : 20mn 54sBit rate mode : ConstantBit rate : 384 KbpsChannel(s) : 2 channelsSampling rate : 48.0 KHzCompression mode : LossyStream size : 57.4 MiB (2%)

Скриншоты


Nissan Juke pres. Virgin Red Room, London - Interview (16.02.2011)

MediaInfo

GeneralComplete name : C:\720p\Nissan Juke pres. Virgin Red Room, London - Interview (16.02.2011).aviFormat : AVIFormat/Info : Audio Video InterleaveFile size : 201 MiBDuration : 5mn 32sOverall bit rate : 5 079 KbpsWriting application : Lavf52.32.0
VideoID : 0Format : xvidCodec ID : xvidDuration : 5mn 32sBit rate : 4 874 KbpsWidth : 1 280 pixelsHeight : 720 pixelsDisplay aspect ratio : 16:9Frame rate : 25.000 fpsBits/(Pixel*Frame) : 0.212Stream size : 193 MiB (96%)
AudioID : 1Format : MPEG AudioFormat version : Version 1Format profile : Layer 3Mode : Joint stereoMode extension : MS StereoCodec ID : 55Codec ID/Hint : MP3Duration : 5mn 32sBit rate mode : ConstantBit rate : 192 KbpsChannel(s) : 2 channelsSampling rate : 44.1 KHzCompression mode : LossyStream size : 7.60 MiB (4%)Alignment : Aligned on interleavesInterleave, duration : 26 ms (0.65 video frame)Writing library : LAME3.97

Скриншоты


Teen Choice Awards - Girlfriend (27.08.2007)

MediaInfo

GeneralComplete name : C:\720p\Teen Choice Awards - Girlfriend (27.08.2007).mpgFormat : MPEG-PSFile size : 466 MiBDuration : 4mn 15sOverall bit rate mode : VariableOverall bit rate : 15.3 Mbps
VideoID : 224 (0xE0)Format : MPEG VideoCommercial name : HDV 720pFormat version : Version 2Format profile : [email protected] settings, BVOP : YesFormat settings, Matrix : CustomFormat settings, GOP : M=3, N=15Duration : 4mn 15sBit rate mode : VariableBit rate : 14.6 MbpsMaximum bit rate : 19.0 MbpsWidth : 1 280 pixelsHeight : 720 pixelsDisplay aspect ratio : 16:9Frame rate : 59.940 fpsStandard : ComponentColor space : YUVChroma subsampling : 4:2:0Bit depth : 8 bitsScan type : ProgressiveCompression mode : LossyBits/(Pixel*Frame) : 0.264Time code of first frame : 00:00:00:00Time code source : Group of pictures headerStream size : 443 MiB (95%)
AudioID : 189 (0xBD)-128 (0x80)Format : AC-3Format/Info : Audio Coding 3Mode extension : CM (complete main)Format settings, Endianness : BigMuxing mode : DVD-VideoDuration : 4mn 15sBit rate mode : ConstantBit rate : 448 KbpsChannel(s) : 6 channelsChannel positions : Front: L C R, Side: L R, LFESampling rate : 48.0 KHzBit depth : 16 bitsCompression mode : LossyStream size : 13.6 MiB (3%)
Text #1ID : 224 (0xE0)-CC1Format : EIA-608Muxing mode : A/53 / DTVCC TransportMuxing mode, more info : Muxed in Video #1Bit rate mode : ConstantStream size : 0.00 Byte (0%)
Text #2ID : 224 (0xE0)-1Format : EIA-708Muxing mode : A/53 / DTVCC TransportMuxing mode, more info : Muxed in Video #1Bit rate mode : ConstantStream size : 0.00 Byte (0%)

Скриншоты


The Oprah Winfrey Show - Love Is A Battlefield (Duet With Pat Benatar) (13.04.2011)

v1

MediaInfo

GeneralComplete name : C:\720p\The Oprah Winfrey Show - Love Is A Battlefield (Duet With Pat Benatar) (13.04.2011)\v1.mpgFormat : MPEG-PSFile size : 455 MiBDuration : 6mn 8sOverall bit rate mode : VariableOverall bit rate : 10.3 Mbps
VideoID : 224 (0xE0)Format : MPEG VideoFormat version : Version 2Format profile : [email protected] settings, BVOP : YesFormat settings, Matrix : CustomFormat settings, GOP : VariableDuration : 6mn 8sBit rate mode : VariableBit rate : 9 754 KbpsMaximum bit rate : 20.0 MbpsWidth : 1 280 pixelsHeight : 720 pixelsDisplay aspect ratio : 16:9Frame rate : 59.940 fpsColor space : YUVChroma subsampling : 4:2:0Bit depth : 8 bitsScan type : ProgressiveCompression mode : LossyBits/(Pixel*Frame) : 0.177Time code of first frame : 00:00:00:00Time code source : Group of pictures headerStream size : 429 MiB (94%)
AudioID : 189 (0xBD)-128 (0x80)Format : AC-3Format/Info : Audio Coding 3Mode extension : CM (complete main)Format settings, Endianness : BigMuxing mode : DVD-VideoDuration : 6mn 8sBit rate mode : ConstantBit rate : 384 KbpsChannel(s) : 6 channelsChannel positions : Front: L C R, Side: L R, LFESampling rate : 48.0 KHzBit depth : 16 bitsCompression mode : LossyStream size : 16.9 MiB (4%)
Text #1ID : 224 (0xE0)-CC1Format : EIA-608Muxing mode : A/53 / DTVCC TransportMuxing mode, more info : Muxed in Video #1Bit rate mode : ConstantStream size : 0.00 Byte (0%)
Text #2ID : 224 (0xE0)-CC2Format : EIA-608Muxing mode : A/53 / DTVCC TransportMuxing mode, more info : Muxed in Video #1Bit rate mode : ConstantStream size : 0.00 Byte (0%)
Text #3ID : 224 (0xE0)-1Format : EIA-708Muxing mode : A/53 / DTVCC TransportMuxing mode, more info : Muxed in Video #1Bit rate mode : ConstantStream size : 0.00 Byte (0%)
Text #4ID : 224 (0xE0)-2Format : EIA-708Muxing mode : A/53 / DTVCC TransportMuxing mode, more info : Muxed in Video #1Bit rate mode : ConstantStream size : 0.00 Byte (0%)
Text #5ID : 224 (0xE0)-3Format : EIA-708Muxing mode : A/53 / DTVCC TransportMuxing mode, more info : Muxed in Video #1Bit rate mode : ConstantStream size : 0.00 Byte (0%)

Скриншоты


v2

MediaInfo

GeneralID : 1 (0x1)Complete name : C:\720p\The Oprah Winfrey Show - Love Is A Battlefield (Duet With Pat Benatar) (13.04.2011)\v2.tsFormat : MPEG-TSFile size : 602 MiBDuration : 4mn 41sOverall bit rate mode : VariableOverall bit rate : 17.9 Mbps
VideoID : 49 (0x31)Menu ID : 1 (0x1)Format : MPEG VideoCommercial name : HDV 720pFormat version : Version 2Format profile : [email protected] settings, BVOP : YesFormat settings, Matrix : CustomFormat settings, GOP : M=3, N=15Codec ID : 2Duration : 4mn 41sBit rate mode : VariableBit rate : 16.7 MbpsWidth : 1 280 pixelsHeight : 720 pixelsDisplay aspect ratio : 16:9Frame rate : 59.940 fpsColor space : YUVChroma subsampling : 4:2:0Bit depth : 8 bitsScan type : ProgressiveCompression mode : LossyBits/(Pixel*Frame) : 0.301Time code of first frame : 00:00:00:00Time code source : Group of pictures headerStream size : 560 MiB (93%)
AudioID : 52 (0x34)Menu ID : 1 (0x1)Format : AC-3Format/Info : Audio Coding 3Mode extension : CM (complete main)Format settings, Endianness : BigCodec ID : 129Duration : 4mn 41sBit rate mode : ConstantBit rate : 384 KbpsChannel(s) : 6 channelsChannel positions : Front: L C R, Side: L R, LFESampling rate : 48.0 KHzBit depth : 16 bitsCompression mode : LossyDelay relative to video : -21msStream size : 12.9 MiB (2%)Language : English
Text #1ID : 49 (0x31)-CC1Menu ID : 1 (0x1)Format : EIA-608Muxing mode : A/53 / DTVCC TransportMuxing mode, more info : Muxed in Video #1Duration : 4mn 41sBit rate mode : ConstantStream size : 0.00 Byte (0%)
Text #2ID : 49 (0x31)-CC2Menu ID : 1 (0x1)Format : EIA-608Muxing mode : A/53 / DTVCC TransportMuxing mode, more info : Muxed in Video #1Duration : 4mn 41sBit rate mode : ConstantStream size : 0.00 Byte (0%)
Text #3ID : 49 (0x31)-1Menu ID : 1 (0x1)Format : EIA-708Muxing mode : A/53 / DTVCC TransportMuxing mode, more info : Muxed in Video #1Duration : 4mn 41sBit rate mode : ConstantStream size : 0.00 Byte (0%)
Text #4ID : 49 (0x31)-2Menu ID : 1 (0x1)Format : EIA-708Muxing mode : A/53 / DTVCC TransportMuxing mode, more info : Muxed in Video #1Duration : 4mn 41sBit rate mode : ConstantStream size : 0.00 Byte (0%)

Скриншоты


The View

28.05.2007

1 Interview + Girlfriend

MediaInfo

GeneralID : 1002 (0x3EA)Complete name : C:\720p\The View\28.05.2007\1 Interview + Girlfriend.tsFormat : MPEG-TSFile size : 765 MiBDuration : 7mn 57sOverall bit rate mode : VariableOverall bit rate : 13.4 Mbps
VideoID : 17 (0x11)Menu ID : 1 (0x1)Format : MPEG VideoFormat version : Version 2Format profile : [email protected] settings, BVOP : YesFormat settings, Matrix : DefaultFormat settings, GOP : M=3, N=30Codec ID : 2Duration : 7mn 57sBit rate mode : VariableBit rate : 12.4 MbpsMaximum bit rate : 80.0 MbpsWidth : 1 280 pixelsHeight : 720 pixelsDisplay aspect ratio : 16:9Frame rate : 59.940 fpsColor space : YUVChroma subsampling : 4:2:0Bit depth : 8 bitsScan type : ProgressiveCompression mode : LossyBits/(Pixel*Frame) : 0.224Time code of first frame : 13:56:24:02Time code source : Group of pictures headerStream size : 705 MiB (92%)
AudioID : 20 (0x14)Menu ID : 1 (0x1)Format : AC-3Format/Info : Audio Coding 3Mode extension : CM (complete main)Format settings, Endianness : BigCodec ID : 129Duration : 7mn 57sBit rate mode : ConstantBit rate : 384 KbpsChannel(s) : 6 channelsChannel positions : Front: L C R, Side: L R, LFESampling rate : 48.0 KHzBit depth : 16 bitsCompression mode : LossyDelay relative to video : -510msStream size : 21.9 MiB (3%)
Text #1ID : 17 (0x11)-CC1Menu ID : 1 (0x1)Format : EIA-608Muxing mode : A/53 / DTVCC TransportMuxing mode, more info : Muxed in Video #1Duration : 7mn 57sBit rate mode : ConstantStream size : 0.00 Byte (0%)
Text #2ID : 17 (0x11)-T1Menu ID : 1 (0x1)Format : EIA-608Muxing mode : A/53 / DTVCC TransportMuxing mode, more info : Muxed in Video #1Duration : 7mn 57sBit rate mode : ConstantStream size : 0.00 Byte (0%)
Text #3ID : 17 (0x11)-1Menu ID : 1 (0x1)Format : EIA-708Muxing mode : A/53 / DTVCC TransportMuxing mode, more info : Muxed in Video #1Duration : 7mn 57sBit rate mode : ConstantStream size : 0.00 Byte (0%)

Скриншоты


2 When You're Gone

MediaInfo

GeneralID : 1002 (0x3EA)Complete name : C:\720p\The View\28.05.2007\2 When You're Gone.tsFormat : MPEG-TSFile size : 410 MiBDuration : 4mn 10sOverall bit rate mode : VariableOverall bit rate : 13.7 Mbps
VideoID : 17 (0x11)Menu ID : 1 (0x1)Format : MPEG VideoFormat version : Version 2Format profile : [email protected] settings, BVOP : YesFormat settings, Matrix : DefaultFormat settings, GOP : M=3, N=30Codec ID : 2Duration : 4mn 10sBit rate mode : VariableBit rate : 12.7 MbpsMaximum bit rate : 80.0 MbpsWidth : 1 280 pixelsHeight : 720 pixelsDisplay aspect ratio : 16:9Frame rate : 59.940 fpsColor space : YUVChroma subsampling : 4:2:0Bit depth : 8 bitsScan type : ProgressiveCompression mode : LossyBits/(Pixel*Frame) : 0.229Time code of first frame : 14:41:56:02Time code source : Group of pictures headerStream size : 378 MiB (92%)
AudioID : 20 (0x14)Menu ID : 1 (0x1)Format : AC-3Format/Info : Audio Coding 3Mode extension : CM (complete main)Format settings, Endianness : BigCodec ID : 129Duration : 4mn 10sBit rate mode : ConstantBit rate : 384 KbpsChannel(s) : 6 channelsChannel positions : Front: L C R, Side: L R, LFESampling rate : 48.0 KHzBit depth : 16 bitsCompression mode : LossyDelay relative to video : -516msStream size : 11.5 MiB (3%)
Text #1ID : 17 (0x11)-CC1Menu ID : 1 (0x1)Format : EIA-608Muxing mode : A/53 / DTVCC TransportMuxing mode, more info : Muxed in Video #1Duration : 4mn 10sBit rate mode : ConstantStream size : 0.00 Byte (0%)
Text #2ID : 17 (0x11)-T1Menu ID : 1 (0x1)Format : EIA-608Muxing mode : A/53 / DTVCC TransportMuxing mode, more info : Muxed in Video #1Duration : 4mn 10sBit rate mode : ConstantStream size : 0.00 Byte (0%)
Text #3ID : 17 (0x11)-1Menu ID : 1 (0x1)Format : EIA-708Muxing mode : A/53 / DTVCC TransportMuxing mode, more info : Muxed in Video #1Duration : 4mn 10sBit rate mode : ConstantStream size : 0.00 Byte (0%)

Скриншоты


Interview + What The Hell (09.03.2011)

MediaInfo

GeneralID : 1 (0x1)Complete name : C:\720p\The View\Interview + What The Hell (09.03.2011).tsFormat : MPEG-TSFile size : 820 MiBDuration : 6mn 24sOverall bit rate mode : VariableOverall bit rate : 17.9 Mbps
VideoID : 49 (0x31)Menu ID : 1 (0x1)Format : MPEG VideoCommercial name : HDV 720pFormat version : Version 2Format profile : [email protected] settings, BVOP : YesFormat settings, Matrix : CustomFormat settings, GOP : M=3, N=15Codec ID : 2Duration : 6mn 23sBit rate mode : VariableBit rate : 16.6 MbpsMaximum bit rate : 17.1 MbpsWidth : 1 280 pixelsHeight : 720 pixelsDisplay aspect ratio : 16:9Frame rate : 59.940 fpsColor space : YUVChroma subsampling : 4:2:0Bit depth : 8 bitsScan type : ProgressiveCompression mode : LossyBits/(Pixel*Frame) : 0.301Time code of first frame : 00:00:00;00Time code source : Group of pictures headerStream size : 761 MiB (93%)
AudioID : 52 (0x34)Menu ID : 1 (0x1)Format : AC-3Format/Info : Audio Coding 3Mode extension : CM (complete main)Format settings, Endianness : BigCodec ID : 129Duration : 6mn 23sBit rate mode : ConstantBit rate : 384 KbpsChannel(s) : 6 channelsChannel positions : Front: L C R, Side: L R, LFESampling rate : 48.0 KHzBit depth : 16 bitsCompression mode : LossyDelay relative to video : 13msStream size : 17.6 MiB (2%)Language : English
Text #1ID : 49 (0x31)-CC1Menu ID : 1 (0x1)Format : EIA-608Muxing mode : A/53 / DTVCC TransportMuxing mode, more info : Muxed in Video #1Duration : 6mn 23sBit rate mode : ConstantStream size : 0.00 Byte (0%)
Text #2ID : 49 (0x31)-T1Menu ID : 1 (0x1)Format : EIA-608Muxing mode : A/53 / DTVCC TransportMuxing mode, more info : Muxed in Video #1Duration : 6mn 23sBit rate mode : ConstantStream size : 0.00 Byte (0%)
Text #3ID : 49 (0x31)-1Menu ID : 1 (0x1)Format : EIA-708Muxing mode : A/53 / DTVCC TransportMuxing mode, more info : Muxed in Video #1Duration : 6mn 23sBit rate mode : ConstantStream size : 0.00 Byte (0%)
Text #4ID : 49 (0x31)-2Menu ID : 1 (0x1)Format : EIA-708Muxing mode : A/53 / DTVCC TransportMuxing mode, more info : Muxed in Video #1Duration : 6mn 23sBit rate mode : ConstantStream size : 0.00 Byte (0%)

Скриншоты


The World Music Awards, Monaco (04.11.2007)

1 Hot

MediaInfo

GeneralComplete name : C:\720p\The World Music Awards, Monaco (04.11.2007)\1 Hot.mpgFormat : MPEG-PSFile size : 306 MiBDuration : 3mn 8sOverall bit rate mode : VariableOverall bit rate : 13.6 Mbps
VideoID : 224 (0xE0)Format : MPEG VideoCommercial name : HDV 720pFormat version : Version 2Format profile : [email protected] settings, BVOP : YesFormat settings, Matrix : CustomFormat settings, GOP : M=3, N=30Duration : 3mn 8sBit rate mode : VariableBit rate : 12.9 MbpsMaximum bit rate : 13.6 MbpsWidth : 1 280 pixelsHeight : 720 pixelsDisplay aspect ratio : 16:9Frame rate : 59.940 fpsStandard : ComponentColor space : YUVChroma subsampling : 4:2:0Bit depth : 8 bitsScan type : ProgressiveCompression mode : LossyBits/(Pixel*Frame) : 0.234Time code of first frame : 00:00:00:00Time code source : Group of pictures headerStream size : 291 MiB (95%)Color primaries : BT.709Transfer characteristics : BT.709Matrix coefficients : BT.709
AudioID : 189 (0xBD)-128 (0x80)Format : AC-3Format/Info : Audio Coding 3Mode extension : CM (complete main)Format settings, Endianness : BigMuxing mode : DVD-VideoDuration : 3mn 8sBit rate mode : ConstantBit rate : 384 KbpsChannel(s) : 6 channelsChannel positions : Front: L C R, Side: L R, LFESampling rate : 48.0 KHzBit depth : 16 bitsCompression mode : LossyStream size : 8.65 MiB (3%)
Text #1ID : 224 (0xE0)-CC1Format : EIA-608Muxing mode : A/53 / DTVCC TransportMuxing mode, more info : Muxed in Video #1Bit rate mode : ConstantStream size : 0.00 Byte (0%)
Text #2ID : 224 (0xE0)-1Format : EIA-708Muxing mode : A/53 / DTVCC TransportMuxing mode, more info : Muxed in Video #1Bit rate mode : ConstantStream size : 0.00 Byte (0%)
Text #3ID : 224 (0xE0)-2Format : EIA-708Muxing mode : A/53 / DTVCC TransportMuxing mode, more info : Muxed in Video #1Bit rate mode : ConstantStream size : 0.00 Byte (0%)

Скриншоты


2 When You're Gone

MediaInfo

GeneralComplete name : C:\720p\The World Music Awards, Monaco (04.11.2007)\2 When You're Gone.mpgFormat : MPEG-PSFile size : 413 MiBDuration : 4mn 14sOverall bit rate mode : VariableOverall bit rate : 13.6 Mbps
VideoID : 224 (0xE0)Format : MPEG VideoCommercial name : HDV 720pFormat version : Version 2Format profile : [email protected] settings, BVOP : YesFormat settings, Matrix : CustomFormat settings, GOP : M=3, N=30Duration : 4mn 14sBit rate mode : VariableBit rate : 12.9 MbpsMaximum bit rate : 13.6 MbpsWidth : 1 280 pixelsHeight : 720 pixelsDisplay aspect ratio : 16:9Frame rate : 59.940 fpsStandard : ComponentColor space : YUVChroma subsampling : 4:2:0Bit depth : 8 bitsScan type : ProgressiveCompression mode : LossyBits/(Pixel*Frame) : 0.234Time code of first frame : 00:00:00:00Time code source : Group of pictures headerStream size : 393 MiB (95%)Color primaries : BT.709Transfer characteristics : BT.709Matrix coefficients : BT.709
AudioID : 189 (0xBD)-128 (0x80)Format : AC-3Format/Info : Audio Coding 3Mode extension : CM (complete main)Format settings, Endianness : BigMuxing mode : DVD-VideoDuration : 4mn 14sBit rate mode : ConstantBit rate : 384 KbpsChannel(s) : 6 channelsChannel positions : Front: L C R, Side: L R, LFESampling rate : 48.0 KHzBit depth : 16 bitsCompression mode : LossyStream size : 11.7 MiB (3%)
Text #1ID : 224 (0xE0)-CC1Format : EIA-608Muxing mode : A/53 / DTVCC TransportMuxing mode, more info : Muxed in Video #1Bit rate mode : ConstantStream size : 0.00 Byte (0%)
Text #2ID : 224 (0xE0)-1Format : EIA-708Muxing mode : A/53 / DTVCC TransportMuxing mode, more info : Muxed in Video #1Bit rate mode : ConstantStream size : 0.00 Byte (0%)
Text #3ID : 224 (0xE0)-2Format : EIA-708Muxing mode : A/53 / DTVCC TransportMuxing mode, more info : Muxed in Video #1Bit rate mode : ConstantStream size : 0.00 Byte (0%)

Скриншоты


V Special - Unplugged (20.11.2011)

Interview

MediaInfo

GeneralUnique ID : 201586258571268851802243073608384194072 (0x97A819E6AA9731BE902738E4AB2B2618)Complete name : C:\720p\V Special - Unplugged (20.11.2011)\Interview.mkvFormat : MatroskaFormat version : Version 2File size : 99.7 MiBDuration : 3mn 29sOverall bit rate : 3 984 KbpsEncoded date : UTC 2011-11-17 13:43:20Writing application : mkvmerge v2.9.7 ('Tenderness') built on Jul 1 2009 18:43:35Writing library : libebml v0.7.7 + libmatroska v0.8.1
VideoID : 1Format : AVCFormat/Info : Advanced Video CodecFormat profile : [email protected] settings, CABAC : YesFormat settings, ReFrames : 6 framesCodec ID : V_MPEG4/ISO/AVCDuration : 3mn 29sNominal bit rate : 3 829 KbpsWidth : 1 280 pixelsHeight : 720 pixelsDisplay aspect ratio : 16:9Frame rate mode : ConstantFrame rate : 29.970 fpsColor space : YUVChroma subsampling : 4:2:0Bit depth : 8 bitsScan type : ProgressiveBits/(Pixel*Frame) : 0.139Writing library : x264 core 68 r1183M f21daffEncoding settings : cabac=1 / ref=6 / deblock=1:-3:-3 / analyse=0x3:0x133 / me=umh / subme=9 / psy_rd=1.0:0.0 / mixed_ref=1 / me_range=32 / chroma_me=1 / trellis=2 / 8x8dct=1 / cqm=0 / deadzone=21,11 / chroma_qp_offset=-2 / threads=12 / nr=0 / decimate=1 / mbaff=0 / bframes=6 / b_pyramid=1 / b_adapt=2 / b_bias=0 / direct=3 / wpredb=1 / keyint=250 / keyint_min=25 / scenecut=40 / rc=2pass / bitrate=3829 / ratetol=1.0 / qcomp=0.60 / qpmin=10 / qpmax=51 / qpstep=4 / cplxblur=20.0 / qblur=0.5 / vbv_maxrate=50000 / vbv_bufsize=50000 / ip_ratio=1.40 / pb_ratio=1.30 / aq=1:1.00Language : EnglishDefault : YesForced : No
AudioID : 2Format : AACFormat/Info : Advanced Audio CodecFormat profile : LCCodec ID : A_AACDuration : 3mn 29sChannel(s) : 2 channelsChannel positions : Front: L RSampling rate : 48.0 KHzCompression mode : LossyLanguage : EnglishDefault : YesForced : No

Скриншоты


Walmart Soundcheck

MediaInfo

GeneralUnique ID : 185101352712574078728300681615428224074 (0x8B41394A891D0EA78AF0E3522537044A)Complete name : C:\720p\V Special - Unplugged (20.11.2011)\Walmart Soundcheck.mkvFormat : MatroskaFormat version : Version 2File size : 630 MiBDuration : 21mn 59sOverall bit rate : 4 007 KbpsEncoded date : UTC 2011-11-20 18:22:39Writing application : mkvmerge v2.9.7 ('Tenderness') built on Jul 1 2009 18:43:35Writing library : libebml v0.7.7 + libmatroska v0.8.1
VideoID : 1Format : AVCFormat/Info : Advanced Video CodecFormat profile : [email protected] settings, CABAC : YesFormat settings, ReFrames : 6 framesCodec ID : V_MPEG4/ISO/AVCDuration : 21mn 59sNominal bit rate : 3 845 KbpsWidth : 1 280 pixelsHeight : 720 pixelsDisplay aspect ratio : 16:9Frame rate mode : ConstantFrame rate : 29.970 fpsColor space : YUVChroma subsampling : 4:2:0Bit depth : 8 bitsScan type : ProgressiveBits/(Pixel*Frame) : 0.139Writing library : x264 core 68 r1183M f21daffEncoding settings : cabac=1 / ref=6 / deblock=1:-3:-3 / analyse=0x3:0x133 / me=umh / subme=9 / psy_rd=1.0:0.0 / mixed_ref=1 / me_range=32 / chroma_me=1 / trellis=2 / 8x8dct=1 / cqm=0 / deadzone=21,11 / chroma_qp_offset=-2 / threads=12 / nr=0 / decimate=1 / mbaff=0 / bframes=6 / b_pyramid=1 / b_adapt=2 / b_bias=0 / direct=3 / wpredb=1 / keyint=250 / keyint_min=25 / scenecut=40 / rc=2pass / bitrate=3845 / ratetol=1.0 / qcomp=0.60 / qpmin=10 / qpmax=51 / qpstep=4 / cplxblur=20.0 / qblur=0.5 / vbv_maxrate=50000 / vbv_bufsize=50000 / ip_ratio=1.40 / pb_ratio=1.30 / aq=1:1.00Language : EnglishDefault : YesForced : No
AudioID : 2Format : AACFormat/Info : Advanced Audio CodecFormat profile : LCCodec ID : A_AACDuration : 21mn 59sChannel(s) : 2 channelsChannel positions : Front: L RSampling rate : 48.0 KHzCompression mode : LossyLanguage : EnglishDefault : YesForced : No

Скриншоты


When You're Gone

MediaInfo

GeneralUnique ID : 238922513180624570081478587120526281506 (0xB3BECD6067D1DC409D793536C7EFCB22)Complete name : C:\720p\When You're Gone.mkvFormat : MatroskaFormat version : Version 1File size : 126 MiBDuration : 3mn 59sOverall bit rate : 4 389 KbpsEncoded date : UTC 2009-02-20 22:08:34Writing application : mkvmerge v2.2.0 ('Turn It On Again') built on Mar 4 2008 13:20:25Writing library : libebml v0.7.7 + libmatroska v0.8.1
VideoID : 1Format : AVCFormat/Info : Advanced Video CodecFormat profile : [email protected] settings, CABAC : YesFormat settings, ReFrames : 2 framesCodec ID : V_MPEG4/ISO/AVCDuration : 3mn 59sBit rate : 4 000 KbpsWidth : 1 280 pixelsHeight : 720 pixelsDisplay aspect ratio : 16:9Frame rate mode : ConstantFrame rate : 29.970 fpsColor space : YUVChroma subsampling : 4:2:0Bit depth : 8 bitsScan type : ProgressiveBits/(Pixel*Frame) : 0.145Stream size : 112 MiB (89%)Writing library : x264 core 66 r0+1101 b69548aEncoding settings : cabac=1 / ref=1 / deblock=1:0:0 / analyse=0x1:0x111 / me=hex / subme=6 / psy_rd=1.0:0.0 / mixed_ref=0 / me_range=16 / chroma_me=1 / trellis=1 / 8x8dct=0 / cqm=0 / deadzone=21,11 / chroma_qp_offset=-2 / threads=3 / nr=0 / decimate=1 / mbaff=0 / bframes=3 / b_pyramid=0 / b_adapt=1 / b_bias=0 / direct=3 / wpredb=1 / keyint=250 / keyint_min=25 / scenecut=40(pre) / rc=2pass / bitrate=4000 / ratetol=1.0 / qcomp=0.60 / qpmin=10 / qpmax=51 / qpstep=4 / cplxblur=20.0 / qblur=0.5 / ip_ratio=1.40 / pb_ratio=1.30 / aq=1:1.00Default : YesForced : No
AudioID : 2Format : AC-3Format/Info : Audio Coding 3Mode extension : CM (complete main)Format settings, Endianness : BigCodec ID : A_AC3Duration : 3mn 59sBit rate mode : ConstantBit rate : 384 KbpsChannel(s) : 2 channelsChannel positions : Front: L RSampling rate : 48.0 KHzBit depth : 16 bitsCompression mode : LossyStream size : 11.0 MiB (9%)Default : YesForced : No

Скриншоты


X Factor USA Final 3 - Complicated (feat. Chris Rene) (21.12.2011)

MediaInfo

GeneralID : 1 (0x1)Complete name : C:\720p\X Factor USA Final 3 - Complicated (feat. Chris Rene) (21.12.2011).tsFormat : MPEG-TSFile size : 389 MiBDuration : 3mn 44sOverall bit rate mode : VariableOverall bit rate : 14.5 Mbps
VideoID : 2048 (0x800)Menu ID : 1 (0x1)Format : MPEG VideoFormat version : Version 2Format profile : [email protected] settings, BVOP : YesFormat settings, Matrix : DefaultFormat settings, GOP : VariableCodec ID : 2Duration : 3mn 44sBit rate mode : VariableBit rate : 13.4 MbpsMaximum bit rate : 20.0 MbpsWidth : 1 280 pixelsHeight : 720 pixelsDisplay aspect ratio : 16:9Active Format Description : Letterbox 16:9 imageFrame rate : 59.940 fpsColor space : YUVChroma subsampling : 4:2:0Bit depth : 8 bitsScan type : ProgressiveCompression mode : LossyBits/(Pixel*Frame) : 0.242Time code of first frame : 00:00:00;00Time code source : Group of pictures headerStream size : 357 MiB (92%)
AudioID : 2049 (0x801)Menu ID : 1 (0x1)Format : AC-3Format/Info : Audio Coding 3Mode extension : CM (complete main)Format settings, Endianness : BigCodec ID : 129Duration : 3mn 44sBit rate mode : ConstantBit rate : 448 KbpsChannel(s) : 6 channelsChannel positions : Front: L C R, Side: L R, LFESampling rate : 48.0 KHzBit depth : 16 bitsCompression mode : LossyStream size : 12.0 MiB (3%)Language : English
Text #1ID : 2048 (0x800)-CC1Menu ID : 1 (0x1)Format : EIA-608Muxing mode : A/53 / DTVCC TransportMuxing mode, more info : Muxed in Video #1Duration : 3mn 44sBit rate mode : ConstantStream size : 0.00 Byte (0%)
Text #2ID : 2048 (0x800)-1Menu ID : 1 (0x1)Format : EIA-708Muxing mode : A/53 / DTVCC TransportMuxing mode, more info : Muxed in Video #1Duration : 3mn 44sBit rate mode : ConstantStream size : 0.00 Byte (0%)

Скриншоты


Other forum [Profile] [PM]
Display posts from previous:    
Reply to topic

The time now is: Today 10:02

All times are GMT + 3 Hours



You cannot post new topics in this forum
You cannot reply to topics in this forum
You cannot edit your posts in this forum
You cannot delete your posts in this forum
You cannot vote in polls in this forum
You cannot attach files in this forum
You cannot download files in this forum