Today is a free download without charge Download

Деффчонки / Сезон: 1 / Серии: 1-10 из 20 (Сергей Корягин) [2012, Ситком, SATRip]

Reply to topic
 
Author
Message

Omen ®

Longevity: 9 years

Posts: 181086

Торрент-статистика

Post 27-Feb-2013 19:32

[Quote]

Деффчонки«Всё, что ты хотел знать о девчонках, но боялся спросить» Год выпуска:
2012
Производство:
Киноконцерн "КОСФИЛЬМ", Россия
Жанр:
Ситком, комедия
Режиссёр:
Сергей Корягин
В ролях:
Галина Боб, Таисия Вилкова, Анастасия Денисова, Полина Максимова, Алексей Воробьёв, Родион Юрин, Тимур Боканча, Александр Серов-Останкинский
Описание:
Героини «Деффчонок» — четыре подруги: мечтательная неудачница Маша, ее 16-летняя сестра Василиса, очкастый офисный планктон Катя и профессиональная блондинка Леля. Каждая хочет от жизни своего: успешной карьеры, правильного замужества, вселенской популярности…
Способов стать счастливой миллион! Одна беда — в жизни все гораздо сложнее, чем в мечтах. Если ты попала на прослушивание к крутому продюсеру, это еще не значит, что тебя сделают звездой. Если заклеила депутата с Рублевки — далеко не факт, что он не слиняет от тебя в Лондон. Бурные ночи с поп-идолом еще не дают гарантии, что он захочет на тебе жениться. А когда ты влюбляешься в начальника, будь готова к тому, что он начнет играть твоими чувствами ради бизнеса.
Сложность еще и в том, что подруги снимают одну на всех квартиру. Ведь все они приехали из Саратова, и родственников в столице у них нет. Жить вчетвером в одном шалаше — вот настоящая беда, в которой познаются друзья. Или это счастье, а не беда вовсе? Ответ на этот и еще 999 вопросов предстоит найти нашим героиням.
Продолжительность:
10 х 00:23:00

Дополнительная информация: На днях добавлю 10 серий 1 сезона, и 15 серий второго. Все последующие серии и сезоны будут в этой раздаче.

Качество: SatRip
Формат: AVI
Видео кодек: XviD
Аудио кодек: AC3
Видео: 688x384 (1.79:1), 25 fps, XviD build 64 ~1578 kbps avg, 0.24 bit/pixel
Аудио: 48 kHz, AC3 Dolby Digital, 2/0 (L,R) ch, ~192.00 kbps avg

Внимание. Раздача ведётся путём добавления новых серий

Внимание! Раздача ведётся путём добавления новых серий; при каждом добавлении создётся новый торрент. Чтобы начать докачку новой серии, пользователям необходимо сделать следующее:
(1) остановить скачивание,
(2) удалить старый торрент у себя из клиента (старые серии удалять не надо),
(3) скачать новый торрент и запустить его у себя в клиенте вместо старого, при этом указать клиенту путь в старую папку куда и должно происходить скачивание новых серий.
Ваш клиент при этом должен произвести хеширование (проверку) старой папки (если не производит сам - помогите ему сделать это), и будет докачивать только те серии которых у вас ещё нет. Старые серии при этом не удаляются, а продолжают раздаваться!
Eсли вы уже удалили старые серии, то предотвратить повторную закачку старых серий можно, отжав галочку в соответсвующих местах при запуске нового торрента. По возможности, желательно не удалять старые серии как можно дольше чтобы релизёр не столько продолжал раздавать старые серии, а смог сконцентрироваться на новых

DVD Cover

MI

Общее
Полное имя : D:\Торренты\Деффчонки_SatRip_by_Дрек_R.G Сериалы\Деффчонки_1_Сезон_SatRip_by_Дрек_R.G Сериалы\Деффчонки_01_SatRip_by_Дрек_R.G Сериалы.avi
Формат : AVI
Формат/Информация : Audio Video Interleave
Размер файла : 301 Мбайт
Продолжительность : 23 м.
Общий поток : 1781 Кбит/сек
Программа кодирования : VirtualDubMod 1.5.10.3 | www.virtualdub-fr.org || (build 2550/release)
Библиотека кодирования : VirtualDubMod build 2550/release
Видео
Идентификатор : 0
Формат : MPEG-4 Visual
Профиль формата : Advanced [email protected]
Параметр BVOP формата : 2
Параметр QPel формата : Нет
Параметр GMC формата : Без точки перехода
Параметр матрицы формата : Default (H.263)
Идентификатор кодека : XVID
Идентификатор кодека/Подсказка : XviD
Продолжительность : 23 м.
Битрейт : 1579 Кбит/сек
Ширина : 688 пикселей
Высота : 384 пикселя
Соотношение сторон : 16:9
Частота кадров : 25,000 кадров/сек
Цветовое пространство : YUV
Субдискретизация насыщенности : 4:2:0
Битовая глубина : 8 бит
Тип развёртки : Прогрессивная
Метод сжатия : С потерями
Бит/(Пиксели*Кадры) : 0.239
Размер потока : 267 Мбайт (89%)
Библиотека кодирования : XviD 64
Аудио
Идентификатор : 1
Формат : AC-3
Формат/Информация : Audio Coding 3
Расширение режима : CM (complete main)
Идентификатор кодека : 2000
Продолжительность : 23 м.
Вид битрейта : Постоянный
Битрейт : 192 Кбит/сек
Каналы : 2 канала
Расположение каналов : Front: L R
Частота : 48,0 КГц
Битовая глубина : 16 бит
Метод сжатия : С потерями
Размер потока : 32,5 Мбайт (11%)
Выравнивание : Разделение по промежуткам
Продолжительность промежутка : 40 мс. (1,00 видеокадр)
Время предзагрузки промежутка : 500 мс.
Other forum [Profile] [PM]
Display posts from previous:    
Reply to topic

The time now is: Today 17:09

All times are GMT + 3 Hours



You cannot post new topics in this forum
You cannot reply to topics in this forum
You cannot edit your posts in this forum
You cannot delete your posts in this forum
You cannot vote in polls in this forum
You cannot attach files in this forum
You cannot download files in this forum