Today is a free download without charge Download

The Australian Pink Floyd Show - Exposed In The Light [2012, progressive rock, psychedelic rock, tribute show, BD Remux]

Reply to topic
 
Author
Message

Omen ®

Longevity: 8 years 4 months

Posts: 181087

Торрент-статистика

Post 27-Feb-2013 19:32

[Quote]

The Australian Pink Floyd Show - Exposed In The Light
Жанр: progressive rock, psychedelic rock, tribute show
Продолжительность: 01:44:42
Год выпуска: 2012
Описание: Выступление известной Pink Floyd ковер-команды из Аделаиды (South Australia) "The Australian Pink Floyd Show", записанное на шоу во время европейского тура "Exposed in the Light". 1 октября 2012 года студия Townsend Music Ltd. выпустила концертные DVD и Blu-Ray диски.
Доп. информация:
Удалены закулисные сцены между треками и стередорожка Dolby Digital 2.0 / 48 kHz / 192 kbps
Качество: BD Remux
Контейнер: MKV
Видео кодек: H.264
Аудио кодек: AC3
Видео: 1920x1080 (16:9), 25.000 fps, AVC, ~15.0 Mbps
Аудио: English, 48.0 KHz, AC3, 6 ch, 448 Kbps
Главы: подписаны

Отчёт MediaInfo / BDInfo

GeneralUnique ID : 187522293259445227377579689479372559093 (0x8D137AE028006552868EB467592C52F5)Complete name : D:\Documents\The Australian Pink Floyd Show - Exposed In The Light [BDRemux].mkvFormat : MatroskaFormat version : Version 4 / Version 2File size : 11.1 GiBDuration : 1h 44mnOverall bit rate mode : ConstantOverall bit rate : 15.2 MbpsEncoded date : UTC 2013-02-05 19:48:38Writing application : mkvmerge v6.0.0 ('Coming Up For Air') built on Jan 20 2013 09:52:00Writing library : libebml v1.3.0 + libmatroska v1.4.0
VideoID : 1Format : AVCFormat/Info : Advanced Video CodecFormat profile : [email protected] settings, CABAC : YesFormat settings, ReFrames : 4 framesCodec ID : V_MPEG4/ISO/AVCDuration : 1h 44mnBit rate mode : ConstantBit rate : 15.0 MbpsWidth : 1 920 pixelsHeight : 1 080 pixelsDisplay aspect ratio : 16:9Frame rate mode : ConstantFrame rate : 25.000 fpsStandard : PALColor space : YUVChroma subsampling : 4:2:0Bit depth : 8 bitsScan type : InterlacedScan order : Top Field FirstBits/(Pixel*Frame) : 0.289Stream size : 10.6 GiB (95%)Language : EnglishDefault : YesForced : NoColor primaries : BT.709Transfer characteristics : BT.709Matrix coefficients : BT.709
AudioID : 2Format : AC-3Format/Info : Audio Coding 3Mode extension : CM (complete main)Format settings, Endianness : BigCodec ID : A_AC3Duration : 1h 44mnBit rate mode : ConstantBit rate : 448 KbpsChannel(s) : 6 channelsChannel positions : Front: L C R, Side: L R, LFESampling rate : 48.0 KHzBit depth : 16 bitsCompression mode : LossyStream size : 336 MiB (3%)Language : EnglishDefault : YesForced : No
Menu00:00:00.000 : en:Intro00:01:31.720 : en:In the Flesh?00:05:01.960 : en:Astronomy Domine00:10:59.800 : en:Take it Back00:17:21.420 : en:Set the Controls for the Heart of the Sun00:25:05.560 : en:High Hopes00:33:08.240 : en:Sheep00:43:09.240 : en:Time / Breathe Reprise00:50:07.140 : en:The Great Gig in the Sky00:55:00.960 : en:Pigs (Three Different Ones)01:07:03.960 : en:The Fletcher Memorial Home01:11:18.900 : en:Keep Talking01:18:38.140 : en:Us and Them01:26:41.800 : en:One of These Days01:33:06.560 : en:Comfortably Numb01:43:23.600 : en:Credits

Скриншоты

Other forum [Profile] [PM]
Display posts from previous:    
Reply to topic

The time now is: Today 22:48

All times are GMT + 3 Hours



You cannot post new topics in this forum
You cannot reply to topics in this forum
You cannot edit your posts in this forum
You cannot delete your posts in this forum
You cannot vote in polls in this forum
You cannot attach files in this forum
You cannot download files in this forum