Today is a free download without charge Download

Мужчина нарасхват / Playing for Keeps (Габриэле Муччино / Gabriele Muccino) [ 2012 , США , мелодрама, комедия , BDRip 1080р ]

Reply to topic
 
Author
Message

Delia ®

Gender:

Longevity: 11 years

Posts: 1821

Торрент-статистика

Post 27-Feb-2013 07:35

[Quote]

-Мужчина нарасхватPlaying for Keeps-- Год выпуска: 2012
Страна: США
Жанр: мелодрама, комедия
Продолжительность: 01:45:37
Перевод: Профессиональный (полное дублирование)
Режиссер: Габриэле Муччино / Gabriele Muccino
Сценарий: Робби Фокс / Robbie Fox
Продюсер: Джерард Батлер / Gerard Butler, Джонатан Мостоу / Jonathan Mostow, Алан Сигел / Alan Siegel, Джон Томпсон / John Thompson, Хайди Джо Маркел / Heidi Jo Markel
Оператор: Питер Мензиес мл. / Peter Menzies Jr.
Композитор: Андреа Гуэрра / Andrea Guerra В ролях: Джерард Батлер (George), Джессика Бил (Stacie), Ума Турман (Patti), Кэтрин Зета-Джонс (Denise), Деннис Куэйд (Carl), Ной Ломакс (Lewis), Джеймс Таппер (Matt), Джуди Грир (Barb), Абелла Уайсс (Ally), Грант Гудман (Billy), Грант Коллинз (Griffin), Эйдан Поттер (Hunter)-Описание: Звезда футбола и просто шикарный мужчина по воле случая становится тренером детской футбольной команды. С этого момента для своих подопечных и их обольстительных мамочек он - «Мужчина нарасхват»...

MPAA: - Детям до 13 лет просмотр не желателен--
Качество: BDRip ( исходник Playing for Keeps 2012 BluRay 1080p AVC DTS-HD MA5.1-HDRoad )
Контейнер: MKV
Видео: AVC, 1920x800 (2.40:1), 9881 kbps, 23,976 fps, 0,268 bpp
Аудио №1: русский /; AC3 /; 5.1 /; 48 kHz /; 448 kbps /; 16 bit; ||
Аудио №2: английский /; AC3 /; 5.1 /; 48 kHz /; 448 kbps /; 16 bit
Субтитры: английские
Навигация по главам: есть--

Media Info

General
Unique ID : 198713332152653691102305217952071155984 (0x957ECBB14D855465AC1A321B44FE0110)
Complete name : E:\Playing for Keeps (2012)1080p.F-HD.mkv
Format : Matroska
Format version : Version 4 / Version 2
File size : 7.95 GiB
Duration : 1h 45mn
Overall bit rate : 10.8 Mbps
Encoded date : UTC 2013-02-26 20:50:20
Writing application : mkvmerge v6.0.0 ('Coming Up For Air') built on Jan 20 2013 09:52:00
Writing library : libebml v1.3.0 + libmatroska v1.4.0
Video
ID : 1
Format : AVC
Format/Info : Advanced Video Codec
Format profile : [email protected]
Format settings, CABAC : Yes
Format settings, ReFrames : 5 frames
Codec ID : V_MPEG4/ISO/AVC
Duration : 1h 45mn
Bit rate : 9 881 Kbps
Width : 1 920 pixels
Height : 800 pixels
Display aspect ratio : 2.40:1
Frame rate : 23.976 fps
Color space : YUV
Chroma subsampling : 4:2:0
Bit depth : 8 bits
Scan type : Progressive
Bits/(Pixel*Frame) : 0.268
Stream size : 7.13 GiB (90%)
Writing library : x264 core 129 r2245kMod bc13772
Encoding settings : cabac=1 / ref=5 / deblock=1:-3:-3 / analyse=0x3:0x113 / me=umh / subme=10 / psy=1 / fade_compensate=0.00 / psy_rd=1.00:0.00 / mixed_ref=1 / me_range=48 / chroma_me=1 / trellis=2 / 8x8dct=1 / cqm=0 / deadzone=21,11 / fast_pskip=0 / chroma_qp_offset=-2 / threads=6 / lookahead_threads=1 / sliced_threads=0 / nr=0 / decimate=1 / interlaced=0 / bluray_compat=0 / constrained_intra=0 / bframes=9 / b_pyramid=2 / b_adapt=2 / b_bias=0 / direct=3 / weightb=1 / open_gop=0 / weightp=2 / keyint=250 / keyint_min=23 / scenecut=40 / intra_refresh=0 / rc=2pass / mbtree=0 / bitrate=9881 / ratetol=1.0 / qcomp=0.70 / qpmin=5 / qpmax=51 / qpstep=4 / cplxblur=20.0 / qblur=0.5 / ip_ratio=1.40 / pb_ratio=1.30 / aq=3:0.80
Language : English
Default : Yes
Forced : No
Matrix coefficients : BT.709-5, BT.1361, IEC 61966-2-4 709, SMPTE RP177
Audio #1
ID : 2
Format : AC-3
Format/Info : Audio Coding 3
Mode extension : CM (complete main)
Codec ID : A_AC3
Duration : 1h 45mn
Bit rate mode : Constant
Bit rate : 448 Kbps
Channel(s) : 6 channels
Channel positions : Front: L C R, Side: L R, LFE
Sampling rate : 48.0 KHz
Bit depth : 16 bits
Compression mode : Lossy
Stream size : 338 MiB (4%)
Language : Russian
Default : Yes
Forced : No
Audio #2
ID : 3
Format : AC-3
Format/Info : Audio Coding 3
Mode extension : CM (complete main)
Codec ID : A_AC3
Duration : 1h 45mn
Bit rate mode : Constant
Bit rate : 448 Kbps
Channel(s) : 6 channels
Channel positions : Front: L C R, Side: L R, LFE
Sampling rate : 48.0 KHz
Bit depth : 16 bits
Compression mode : Lossy
Stream size : 338 MiB (4%)
Language : English
Default : No
Forced : No
Text
ID : 4
Format : UTF-8
Codec ID : S_TEXT/UTF8
Codec ID/Info : UTF-8 Plain Text
Language : English
Default : No
Forced : No
Menu
00:00:00.000 : en:00:00:00.000
00:05:20.570 : en:00:05:20.570
00:12:47.224 : en:00:12:47.224
00:17:47.941 : en:00:17:47.941
00:26:00.767 : en:00:26:00.767
00:29:59.464 : en:00:29:59.464
00:37:14.815 : en:00:37:14.815
00:41:30.863 : en:00:41:30.863
00:49:01.813 : en:00:49:01.813
00:57:41.040 : en:00:57:41.040
01:01:35.692 : en:01:01:35.692
01:07:56.280 : en:01:07:56.280
01:13:48.465 : en:01:13:48.465
01:19:21.214 : en:01:19:21.214
01:24:21.848 : en:01:24:21.848
01:30:05.316 : en:01:30:05.316


Скриншоты

     
     

_________________
Человек – это канат, натянутый между животным и сверхчеловеком, – канат над пропастью.
В человеке ценно то, что он мост, а не цель. Фридрих Ницше
Other forum [Profile] [PM]
Display posts from previous:    
Reply to topic

The time now is: Today 19:35

All times are GMT + 3 Hours



You cannot post new topics in this forum
You cannot reply to topics in this forum
You cannot edit your posts in this forum
You cannot delete your posts in this forum
You cannot vote in polls in this forum
You cannot attach files in this forum
You cannot download files in this forum