Today is a free download without charge Download

Собачья работа / Серии: 1-8 из 8 (Алексей Рудаков) [2012, Россия, криминал, детектив, DVD9] R5 Original Rus

Reply to topic
 
Author
Message

Omen ®

Longevity: 9 years

Posts: 181086

Торрент-статистика

Post 27-Feb-2013 03:00

[Quote]

-Собачья работа -Страна: Россия
Студия: Art Pictures Media
Жанр: криминал, детектив
Год выпуска: 2012
Российская премьера: 8 октября 2012
Дата выхода DVD: 14 февраля 2013, «Компания WWW.RECORDS»
Продолжительность: 360 мин.
Перевод: Оригинал [Лицензия]
Cубтитры: нет
Оригинальная аудиодорожка: русский-Режиссер: Алексей Рудаков-В ролях: Владимир Епифанцев, Ирина Лачина, Светлана Немоляева, Михаил Полицеймако, Александр Стриженов, Елена Дробышева, Анатолий Журавлев, Галина Звягинцева, Игорь Пазыч, Наталия Житкова-Описание: Капитан полиции кинолог Илья Смагин во время спецоперации теряет напарника и друга — пса Рагдая, одного из лучших «поисковиков» в кинологической службе.
Смагину и его коллегам предстоит найти и обезвредить банду наркоторговцев и выяснить, где они прячут товар.
Смагин не верит в то, что ему удастся найти собаку, равную Рагдаю. В это время ему передают письмо от коллеги, убитого во время той же операции. Предчувствуя свою гибель, коллега просит Смагина позаботиться о его собаке Луше. Луша тоскует по умершему хозяину и отказывается от пищи. Смагин берет Лушу к себе.
-Бонусы: нет- -Релиз группы: -Все раздачи сериала-Качество: DVD9 R5
Формат: DVD-Video
Видео кодек: MPEG2
Аудио кодек: AC3
Видео: PAL 16:9 (720x576(4.378)) MPEG Video, 25,000 кадр/сек, 8100 Кбит/сек
Аудио: Russian (Dolby AC3, 2 ch) 96 Кбит/сек, 48,0 КГц--

DVDInfo

Title: Sobachya.rabota.2012.DVD9
Size: 7.40 Gb ( 7 754 590,00 KBytes ) - DVD-9
Enabled regions: 1, 2, 3, 4, 5, 6, 7, 8
VTS_01 :
Play Length: 00:44:01+00:44:51+00:44:41+00:44:31+00:43:41+00:44:31+00:44:36+00:44:01
Video: PAL 16:9 (720x576) VBR, Auto Letterboxed
Audio:
English (Dolby AC3, 2 ch)
* Menus Information *
VIDEO_TS Menu
Video:
PAL 16:9 (720x576) VBR
Auto Letterboxed
Audio:
Not specified (Dolby AC3, 2 ch)
English Language Unit :
Title Menu
VTS_01 Menu
Video:
PAL 16:9 (720x576) VBR
Auto Letterboxed
Audio:
Not specified (Dolby AC3, 2 ch)
English Language Unit :
Root Menu

MediaInfo

Общее
Полное имя : J:\Новинки 2013\Sobachya.rabota.2012.DVD9\VIDEO_TS\VTS_01_2.VOB
Формат : MPEG-PS
Размер файла : 1024 Мбайт
Продолжительность : 3 м. 5 с.
Режим общего битрейта : Переменный
Общий поток : 46,4 Мбит/сек
Видео
Идентификатор : 224 (0xE0)
Формат : MPEG Video
Версия формата : Version 2
Профиль формата : [email protected]
Параметр BVOP формата : Да
Параметр матрицы формата : Выборочная
Параметр GOP формата : Variable
Продолжительность : 3 м. 4 с.
Вид битрейта : Переменный
Битрейт : 45,4 Мбит/сек
Максимальный битрейт : 8100 Кбит/сек
Ширина : 720 пикселей
Высота : 576 пикселей
Соотношение сторон : 16:9
Частота кадров : 25,000 кадров/сек
Стандарт вещания : PAL
Цветовое пространство : YUV
Субдискретизация насыщенности : 4:2:0
Битовая глубина : 8 бит
Тип развёртки : Прогрессивная
Метод сжатия : С потерями
Бит/(Пиксели*Кадры) : 4.378
Размер потока : 999 Мбайт (98%)
Аудио
Идентификатор : 189 (0xBD)-128 (0x80)
Формат : AC-3
Формат/Информация : Audio Coding 3
Расширение режима : CM (complete main)
Параметр Endianness формата : Big
Режим смешивания : DVD-Video
Продолжительность : 3 м. 5 с.
Вид битрейта : Постоянный
Битрейт : 96,0 Кбит/сек
Каналы : 2 канала
Расположение каналов : Front: L R
Частота : 48,0 КГц
Битовая глубина : 16 бит
Метод сжатия : С потерями
Задержка видео : -592 мс.
Размер потока : 2,12 Мбайт (0%)

Скриншоты меню

Скриншоты сериала


-
-Раздача от группы:
Other forum [Profile] [PM]
Display posts from previous:    
Reply to topic

The time now is: Today 18:38

All times are GMT + 3 Hours



You cannot post new topics in this forum
You cannot reply to topics in this forum
You cannot edit your posts in this forum
You cannot delete your posts in this forum
You cannot vote in polls in this forum
You cannot attach files in this forum
You cannot download files in this forum