Today is a free download without charge Download

Титаник / Titanic (Джеймс Кэмерон) [1997 г., драма, мелодрама, Blu-ray Disc, 1080p BD3D] Лицензия

Reply to topic
 
Author
Message

Meshanik ®

Gender:

Longevity: 8 years 10 months

Posts: 3866

Location: Los Angeles

Торрент-статистика

Post 27-Feb-2013 02:53

[Quote]

Титaник 3Д / Titаnic 3D
«Ничто на Земле не сможет разлучить их»
- Русское название: Титaник 3Д
Оригинальное название: Titаnic 3D
Год выпуска: 1997 (2012)
Страна: США
Жанр: драма, мелодрама
Продолжительность: 03:14:54
Перевод: Дубляж, Лицензия (1997)
Субтитры: есть-Режиссер: Джеймс Кэмерон / James Cameron
Продюссер: Джеймс Кэмерон, Джон Ландау, Памела Исли
Сценарий: Джеймс Кэмерон
В ролях: Леонардо ДиКаприо, Кейт Уинслет, Билли Зейн, Кэти Бейтс, Фрэнсис Фишер, Глория Стюарт, Билл Пэкстон, Бернард Хилл, Дэвид Уорнер, Виктор Гарбер -Описание фильма:
Фильм о любви, которая потрясла весь мир и по праву может называться самым знаменитым фильмом мирового кинематографа. Звезды Голливуда Леонардо Ди Каприо и Кейт Уинслет блистают на экране в ролях молодых влюбленных Джека и Розы, которые находят друг друга в первом и последнем плавании "непотопляемого" "Титаника". Они не могли знать, что шикарный лайнер столкнется с айсбергом в холодных водах Северной Атлантики, и их страстная любовь превратится в схватку со смертью.-Премьера: 1 ноября 1997 (20 февраля 1998)
Ре-премьера: 5 апреля 2012
Бюджет: $240 000 000
$2 183 672 302
Топ 250 Кинопоиск: №50

Бюджет: $200 000 000-Качество: Blu-ray
Формат: BDMV
Формат 3D: Blu-Ray3D
Видео кодек: m2ts
Аудио кодек: DTS-HD, DTS, AC3
Диск 1
Видео: 1920x1080 (16:9) m2ts / 30824 kbps / 23,976 fps
Аудио 1: English DTS-HD Master Audio / 3798 kbps / 5.1 / 48 kHz / 3798 kbps / 24-bit (DTS Core: 5.1 / 48 kHz / 1509 kbps / 24-bit)
Аудио 2: Russian Dolby Digital EX Audio / 448 kbps / 5.1-EX / 48 kHz / 448 kbps (DUB)
Аудио 3: Russian Dolby Digital Audio / 384 kbps / 5.1 / 48 kHz / 384 kbps (MVO - Киномания)
Аудио 4: Russian DTS Audio / 1509 kbps / 5.1 / 48 kHz / 1509 kbps / 24-bit (П.Гланц, И.Королёва)
Аудио 5: Russian Dolby Digital Audio / 448 kbps / 5.1 / 48 kHz / 448 kbps / DN -4dB (MVO - НТВ+)
Субтитры: Russian / 83,589 kbps
Субтитры: English / 47,255 kbps

Диск 2
Видео: 1920x1080 (16:9) m2ts / 30538 kbps / 23,976 fps
Аудио 1: English DTS-HD Master Audio / 4004 kbps / 5.1 / 48 kHz / 3798 kbps / 24-bit (DTS Core: 5.1 / 48 kHz / 1509 kbps / 24-bit)
Аудио 2: Russian Dolby Digital EX Audio / 448 kbps / 5.1-EX / 48 kHz / 448 kbps (DUB)
Аудио 3: Russian Dolby Digital Audio / 384 kbps / 5.1 / 48 kHz / 384 kbps (MVO - Киномания)
Аудио 4: Russian Dolby Digital EX Audio / 448 kbps / 5.1 / 48 kHz / 448 kbps (П.Гланц, И.Королёва)
Аудио 5: Russian Dolby Digital Audio / 448 kbps / 5.1 / 48 kHz / 448 kbps / DN -4dB (MVO - НТВ+)
Субтитры: Russian / 49,928 kbps
Субтитры: English / 28,975 kbps
-:!: Если у Вас нет 3Д оборудования - Вы можете выбрать из меню и посмотреть в 2Д :!:-

Техн. детали съёмки

Производство 1 сентября 1995 — Сентябрь 1997
Съёмки: 15 июля 1996 — 23 марта 1997
Формат изображения: 1.78 : 1 (IMAX 3-D version)
2.35 : 1
Камера: Panavision Panaflex Gold II, Panavision Primo Lenses
Panavision Panaflex Platinum, Panavision Primo Lenses
Формат копии: 35 mm (anamorphic) (Eastman EXR 5386)
70 mm (blow-up) (Eastman EXR 5386)
70 mm (horizontal) (IMAX DMR blow-up) (dual-strip 3-D) (Kodak Vision 2383) (2012 re-release)
8 mm (anamorphic)
D-Cinema (also 3-D version: 2012 re-release)
Формат съёмок: 35 mm (Eastman EXR 50D 5245, Kodak Vision 500T 5279)
Изображение: цветное
-

MediaInfo (Диск 1)

Код:
Общее
Идентификатор : 0 (0x0)
Полное имя : H:BDMVSTREAM�0007.m2ts
Формат : BDAV
Формат/Информация : Blu-ray Video
Размер файла : 29,9 Гбайт
Продолжительность : 1 ч. 47 м.
Режим общего битрейта : Переменный
Общий поток : 39,6 Мбит/сек
Максимальный общий битрейт : 48,0 Мбит/сек
Видео
Идентификатор : 4113 (0x1011)
Идентификатор меню : 1 (0x1)
Формат : AVC
Формат/Информация : Advanced Video Codec
Профиль формата : [email protected]
Параметр CABAC формата : Да
Параметр ReFrames формата : 4 кадра
Идентификатор кодека : 27
Продолжительность : 1 ч. 47 м.
Вид битрейта : Переменный
Максимальный битрейт : 32,0 Мбит/сек
Ширина : 1920 пикселей
Высота : 1080 пикселей
Соотношение сторон : 16:9
Частота кадров : 23,976 кадра/сек
Стандарт вещания : NTSC
Цветовое пространство : YUV
Субдискретизация насыщенности : 4:2:0
Битовая глубина : 8 бит
Тип развёртки : Прогрессивная
Основные цвета : BT.709
Характеристики трансфера : BT.709
Коэффициенты матрицы : BT.709
Аудио #1
Идентификатор : 4352 (0x1100)
Идентификатор меню : 1 (0x1)
Формат : DTS
Формат/Информация : Digital Theater Systems
Профиль формата : MA / Core
Режим : 16
Параметр Endianness формата : Big
Режим смешивания : Stream extension
Идентификатор кодека : 134
Продолжительность : 1 ч. 47 м.
Вид битрейта : Переменный
Битрейт : Неизвестно / 1509 Кбит/сек
Каналы : 6 каналов
Расположение каналов : Front: L C R, Side: L R, LFE
Частота : 48,0 КГц
Битовая глубина : 24 бит
Метод сжатия : Без потерь / Lossy
Аудио #2
Идентификатор : 4353 (0x1101)
Идентификатор меню : 1 (0x1)
Формат : AC-3
Формат/Информация : Audio Coding 3
Расширение режима : CM (complete main)
Параметр Endianness формата : Big
Идентификатор кодека : 129
Продолжительность : 1 ч. 47 м.
Вид битрейта : Постоянный
Битрейт : 448 Кбит/сек
Каналы : 6 каналов
Расположение каналов : Front: L C R, Side: L R, LFE
Частота : 48,0 КГц
Битовая глубина : 16 бит
Метод сжатия : С потерями
Размер потока : 346 Мбайт (1%)
Аудио #3
Идентификатор : 4354 (0x1102)
Идентификатор меню : 1 (0x1)
Формат : AC-3
Формат/Информация : Audio Coding 3
Расширение режима : CM (complete main)
Параметр Endianness формата : Big
Идентификатор кодека : 129
Продолжительность : 1 ч. 47 м.
Вид битрейта : Постоянный
Битрейт : 384 Кбит/сек
Каналы : 6 каналов
Расположение каналов : Front: L C R, Side: L R, LFE
Частота : 48,0 КГц
Битовая глубина : 16 бит
Метод сжатия : С потерями
Размер потока : 297 Мбайт (1%)
Аудио #4
Идентификатор : 4355 (0x1103)
Идентификатор меню : 1 (0x1)
Формат : DTS
Формат/Информация : Digital Theater Systems
Режим : 16
Параметр Endianness формата : Big
Идентификатор кодека : 130
Продолжительность : 1 ч. 47 м.
Вид битрейта : Постоянный
Битрейт : 1509 Кбит/сек
Каналы : 6 каналов
Расположение каналов : Front: L C R, Side: L R, LFE
Частота : 48,0 КГц
Битовая глубина : 24 бит
Метод сжатия : С потерями
Размер потока : 1,14 Гбайт (4%)
Аудио #5
Идентификатор : 4356 (0x1104)
Идентификатор меню : 1 (0x1)
Формат : AC-3
Формат/Информация : Audio Coding 3
Расширение режима : CM (complete main)
Параметр Endianness формата : Big
Идентификатор кодека : 129
Продолжительность : 1 ч. 47 м.
Вид битрейта : Постоянный
Битрейт : 448 Кбит/сек
Каналы : 6 каналов
Расположение каналов : Front: L C R, Side: L R, LFE
Частота : 48,0 КГц
Битовая глубина : 16 бит
Метод сжатия : С потерями
Размер потока : 346 Мбайт (1%)
Текст #1
Идентификатор : 4608 (0x1200)
Идентификатор меню : 1 (0x1)
Формат : PGS
Идентификатор кодека : 144
Текст #2
Идентификатор : 4609 (0x1201)
Идентификатор меню : 1 (0x1)
Формат : PGS
Идентификатор кодека : 144
Текст #3
Идентификатор : 4610 (0x1202)
Идентификатор меню : 1 (0x1)
Формат : PGS
Идентификатор кодека : 144
-

MediaInfo (Диск 2)

Код:
Общее
Идентификатор : 0 (0x0)
Полное имя : H:BDMVSTREAM�0004.m2ts
Формат : BDAV
Формат/Информация : Blu-ray Video
Размер файла : 23,2 Гбайт
Продолжительность : 1 ч. 26 м.
Режим общего битрейта : Переменный
Общий поток : 38,3 Мбит/сек
Максимальный общий битрейт : 48,0 Мбит/сек
Видео
Идентификатор : 4113 (0x1011)
Идентификатор меню : 1 (0x1)
Формат : AVC
Формат/Информация : Advanced Video Codec
Профиль формата : [email protected]
Параметр CABAC формата : Да
Параметр ReFrames формата : 4 кадра
Идентификатор кодека : 27
Продолжительность : 1 ч. 26 м.
Вид битрейта : Переменный
Максимальный битрейт : 33,1 Мбит/сек
Ширина : 1920 пикселей
Высота : 1080 пикселей
Соотношение сторон : 16:9
Частота кадров : 23,976 кадра/сек
Стандарт вещания : NTSC
Цветовое пространство : YUV
Субдискретизация насыщенности : 4:2:0
Битовая глубина : 8 бит
Тип развёртки : Прогрессивная
Основные цвета : BT.709
Характеристики трансфера : BT.709
Коэффициенты матрицы : BT.709
Аудио #1
Идентификатор : 4352 (0x1100)
Идентификатор меню : 1 (0x1)
Формат : DTS
Формат/Информация : Digital Theater Systems
Профиль формата : MA / Core
Режим : 16
Параметр Endianness формата : Big
Режим смешивания : Stream extension
Идентификатор кодека : 134
Продолжительность : 1 ч. 26 м.
Вид битрейта : Переменный
Битрейт : Неизвестно / 1509 Кбит/сек
Каналы : 6 каналов
Расположение каналов : Front: L C R, Side: L R, LFE
Частота : 48,0 КГц
Битовая глубина : 24 бит
Метод сжатия : Без потерь / Lossy
Аудио #2
Идентификатор : 4353 (0x1101)
Идентификатор меню : 1 (0x1)
Формат : AC-3
Формат/Информация : Audio Coding 3
Расширение режима : CM (complete main)
Параметр Endianness формата : Big
Идентификатор кодека : 129
Продолжительность : 1 ч. 26 м.
Вид битрейта : Постоянный
Битрейт : 448 Кбит/сек
Каналы : 6 каналов
Расположение каналов : Front: L C R, Side: L R, LFE
Частота : 48,0 КГц
Битовая глубина : 16 бит
Метод сжатия : С потерями
Размер потока : 278 Мбайт (1%)
Аудио #3
Идентификатор : 4354 (0x1102)
Идентификатор меню : 1 (0x1)
Формат : AC-3
Формат/Информация : Audio Coding 3
Расширение режима : CM (complete main)
Параметр Endianness формата : Big
Идентификатор кодека : 129
Продолжительность : 1 ч. 26 м.
Вид битрейта : Постоянный
Битрейт : 384 Кбит/сек
Каналы : 6 каналов
Расположение каналов : Front: L C R, Side: L R, LFE
Частота : 48,0 КГц
Битовая глубина : 16 бит
Метод сжатия : С потерями
Размер потока : 239 Мбайт (1%)
Аудио #4
Идентификатор : 4355 (0x1103)
Идентификатор меню : 1 (0x1)
Формат : AC-3
Формат/Информация : Audio Coding 3
Расширение режима : CM (complete main)
Параметр Endianness формата : Big
Идентификатор кодека : 129
Продолжительность : 1 ч. 26 м.
Вид битрейта : Постоянный
Битрейт : 448 Кбит/сек
Каналы : 6 каналов
Расположение каналов : Front: L C R, Side: L R, LFE
Частота : 48,0 КГц
Битовая глубина : 16 бит
Метод сжатия : С потерями
Размер потока : 278 Мбайт (1%)
Аудио #5
Идентификатор : 4356 (0x1104)
Идентификатор меню : 1 (0x1)
Формат : AC-3
Формат/Информация : Audio Coding 3
Расширение режима : CM (complete main)
Параметр Endianness формата : Big
Идентификатор кодека : 129
Продолжительность : 1 ч. 26 м.
Вид битрейта : Постоянный
Битрейт : 448 Кбит/сек
Каналы : 6 каналов
Расположение каналов : Front: L C R, Side: L R, LFE
Частота : 48,0 КГц
Битовая глубина : 16 бит
Метод сжатия : С потерями
Размер потока : 278 Мбайт (1%)
Текст #1
Идентификатор : 4608 (0x1200)
Идентификатор меню : 1 (0x1)
Формат : PGS
Идентификатор кодека : 144
Текст #2
Идентификатор : 4609 (0x1201)
Идентификатор меню : 1 (0x1)
Формат : PGS
Идентификатор кодека : 144
Текст #3
Идентификатор : 4610 (0x1202)
Идентификатор меню : 1 (0x1)
Формат : PGS
Идентификатор кодека : 144
-

Скриншоты Меню

     
-

Скриншоты Фильма

       
- -
Other forum [Profile] [PM]
Display posts from previous:    
Reply to topic

The time now is: Today 10:15

All times are GMT + 3 Hours



You cannot post new topics in this forum
You cannot reply to topics in this forum
You cannot edit your posts in this forum
You cannot delete your posts in this forum
You cannot vote in polls in this forum
You cannot attach files in this forum
You cannot download files in this forum