Today is a free download without charge Download

Марьина роща / Серии: 1-16 из 16 (Александр Хван) [2012, детектив, DVDRip]

Reply to topic
 
Author
Message

Omen ®

Longevity: 9 years

Posts: 181086

Торрент-статистика

Post 26-Feb-2013 22:52

[Quote]

Марьина роща
Год выпуска: 2012
Производство: "Мостелефильм"
Жанр: детектив
Продолжительность: ~ 00:44:00
Субтитры: нет
Режиссёр: Александр Хван
В ролях: Александр Домогаров, Евгения Крюкова, Виталий Кудрявцев, Сергей Комаров, Савва Гусев, Елена Доронина, Яна Львова, Наталья Литвинова, Виктор Тереля, Дмитрий Смирнов, Артем Лысков, Виталий Горшков, Виктор Маркин, Олег Алмазов, Сергей Потапов, Юрий Шлыков, Борис Романов, Константин Желдин, Петр Зайченко, Ольга Науменко, Татьяна Мухина, Егор Баринов, Людмила Давыдова, Ирина Гордина, Полина Лунегова, Татьяна Чернопятова, Алексей Михайлов, Ксения Баринова, Игорь Филиппов, Дмитрий Гусев, Евгений Харланов, Михаил Горский, Анастасия Платонова, Сергей Дьячков, Константин Глушков, Михаил Солодко, Максим Макаров, Игорь Огурцов
Описание: Вернувшись после победы с фронта оперативник МУРА Константин Трошин узнает, что там он больше не работает. А причина — в конфликте с влиятельным генералом НКГБ. Но Трошин не намерен отступать, так как без работы в органах жизнь его теряет всякий смысл. Он устраивается на работу в самом неблагополучном районе Москвы — Марьиной Роще. И там же из-зи личных проблем поселиться жить в коммуналке. Таким образом, Трошин оказался в самом центре криминальной среды. Он тесно сходится с ее обитателями. И, может быть, из-за этого ему удается раскрывать самые дерзкие и хладнокровные преступления. Убийства, налеты и аферы — здесь не в новинку. Но Трошин хочет идти дальше и искоренить преступление как таковое. А люди в ответ на его желание идут к нему, как третейскому судье, они доверяют ему, когда надо отделять добро от зла.
Сэмпл
Качество: DVDRip / DVD9
Формат: AVI
Видео кодек: XviD
Аудио кодек: AC3
Видео: Video: 688x384 (1.79:1), 25 fps, XviD build 65 ~1152 kbps avg, 0.17 bit/pixel
Аудио: Audio: 48 kHz, AC3 Dolby Digital, 2/0 (L,R) ch, ~96.00 kbps avg

MI

Общее
Полное имя :Maryina.roshha.2012.DVDRip
Формат : AVI
Формат/Информация : Audio Video Interleave
Размер файла : 402 Мбайт
Продолжительность : 44 м.
Общий поток : 1256 Кбит/сек
Видео
Идентификатор : 0
Формат : MPEG-4 Visual
Профиль формата : Advanced [email protected]
Параметр BVOP формата : 1
Параметр QPel формата : Нет
Параметр GMC формата : Без точки перехода
Параметр матрицы формата : Выборочная
Идентификатор кодека : XVID
Идентификатор кодека/Подсказка : XviD
Продолжительность : 44 м.
Битрейт : 1152 Кбит/сек
Ширина : 688 пикселей
Высота : 384 пикселя
Соотношение сторон : 16:9
Частота кадров : 25,000 кадров/сек
Цветовое пространство : YUV
Субдискретизация насыщенности : 4:2:0
Битовая глубина : 8 бит
Тип развёртки : Прогрессивная
Метод сжатия : С потерями
Бит/(Пиксели*Кадры) : 0.174
Размер потока : 369 Мбайт (92%)
Библиотека кодирования : XviD 65
Аудио
Идентификатор : 1
Формат : AC-3
Формат/Информация : Audio Coding 3
Расширение режима : CM (complete main)
Параметр Endianness формата : Big
Идентификатор кодека : 2000
Продолжительность : 44 м.
Вид битрейта : Постоянный
Битрейт : 96,0 Кбит/сек
Каналы : 2 канала
Расположение каналов : Front: L R
Частота : 48,0 КГц
Битовая глубина : 16 бит
Метод сжатия : С потерями
Размер потока : 30,7 Мбайт (8%)
Выравнивание : Соединение по промежуткам
Продолжительность промежутка : 64 мс. (1,60 видеокадра)
Время предзагрузки промежутка : 192 мс.
Заголовок : VTS_01_001 T80 2_0ch 96Kbps DELAY 0ms

Скриншоты

Other forum [Profile] [PM]
Display posts from previous:    
Reply to topic

The time now is: Today 17:30

All times are GMT + 3 Hours



You cannot post new topics in this forum
You cannot reply to topics in this forum
You cannot edit your posts in this forum
You cannot delete your posts in this forum
You cannot vote in polls in this forum
You cannot attach files in this forum
You cannot download files in this forum