Today is a free download without charge Download

96 минут / 96 Minutes (Айми Лэгос / Aimee Lagos) [2011, США, триллер, драма, BDRip 1080p] VO (VANO) + Original (Eng) + Sub (Eng)

Reply to topic
 
Author
Message

Omen ®

Longevity: 8 years 5 months

Posts: 181087

Торрент-статистика

Post 26-Feb-2013 22:52

[Quote]

96 минут / 96 Minutes Страна: США
Студия: First Point Entertainment, Katonah Pictures, ...
Жанр: триллер, драма
Год выпуска: 2011
Продолжительность: 01:34:39
Перевод: Одноголосый закадровый VANO
Cубтитры: английские (fansub)
Оригинальная аудиодорожка: английский
Режиссер: Айми Лэгос / Aimee Lagos
В ролях: Бриттани Сноу, Кристиан Серратос, Дэвид Ойелоуо, Елена Варела, Ивэн Росс, Маркис Мур, Сильвия Джеффрис, Джастин Мартин, Шэрон Моррис, Хоси Чанчес
Описание:
Этот фильм о четырех жизнях, сталкивающихся в шокирующий момент. В перекрест между угоном автомобиля и отдельными историями о четырех подростках, мы видим как они стремительно приближаются к финалу, который изменит их жизнь.
- -Тип релиза: BDRip 1080p (рип от HDS)
Контейнер: MKV
Видео: AVC (x264), 1920x800 (2,40:1) at 23,976 fps, 9800 Кbps, 0.266 bpp
Аудио 1: AC3; 224 Kbps; CBR; 2 ch; 48 khz | VO - VANO |
Аудио 2: DTS; 1536 Kbps; CBR; 6 ch; 48 khz; 24 bit | Английский |
Аудио 3: AC3; 192 Kbps; CBR; 2 ch; 48 khz | Английский | - Commentary: Айми Лэгос и Дэвид Ойелоуо
Формат субтитров: softsub (SRT)

Скриншоты || x264 Info || MediaInfo || Notes

Notes:

Цитата:
  • Аудио дорожка №1 найдена в сети
  • Английская дорожка взята с 96.Minutes.2011.720p.BluRay.x264-TRiPS, так как на немецком блюрее был звук 755 Kbpss - и он был убит - по сравнению с другим изданием
    + в US версии в конце звучит песня Eminem – Not afraid (:
  • Поименованные главы и комментарии режиссёра взяты с 96.Minutes.2011.COMPLETE.R1.NTSC.DVDR-CME
  • Английские субтитры найдены в сети

    По поводу озвучки

    00:15:52
    русская озвучка: Ты что хочешь что бы эта девушка умерла от кровоизлияния?
    оригинал: Okay, what? You want to let this girl bleed to death in the back of the fucking car?
    01:23:16
    русская озвучка: Я слышала о твоём кузине.
    оригинал: I heard about your cousin.

MediaInfo

Код:
Общее
Уникальный идентификатор                 : 190911233171556819724168471786195130801 (0x8FA02A837716443AA61C79C1EF8619B1)
Полное имя                               : 96 минут.2011.L1.1080p.BluRay.x264-HDS.mkv
Формат                                   : Matroska
Версия формата                           : Version 4 / Version 2
Размер файла                             : 7,75 Гбайт
Продолжительность                        : 1 ч. 34 м.
Общий поток                              : 11,7 Мбит/сек
Название фильма                          : profile.php?mode=viewprofile&u=22488948
Дата кодирования                         : UTC 2013-02-26 09:16:02
Программа кодирования                    : mkvmerge v6.0.0 ('Coming Up For Air') built on Jan 20 2013 09:52:00
Библиотека кодирования                   : libebml v1.3.0 + libmatroska v1.4.0
Видео
Идентификатор                            : 1
Формат                                   : AVC
Формат/Информация                        : Advanced Video Codec
Профиль формата                          : [email protected]
Параметр CABAC формата                   : Да
Параметр ReFrames формата                : 5 кадров
Идентификатор кодека                     : V_MPEG4/ISO/AVC
Продолжительность                        : 1 ч. 34 м.
Битрейт                                  : 9800 Кбит/сек
Ширина                                   : 1920 пикселей
Высота                                   : 800 пикселей
Соотношение сторон                       : 2,40:1
Частота кадров                           : 23,976 кадра/сек
Цветовое пространство                    : YUV
Субдискретизация насыщенности            : 4:2:0
Битовая глубина                          : 8 бит
Тип развёртки                            : Прогрессивная
Бит/(Пиксели*Кадры)                      : 0.266
Размер потока                            : 6,32 Гбайт (82%)
Библиотека кодирования                   : x264 core 129 r2245 bc13772
Настройки программы                      : cabac=1 / ref=5 / deblock=1:-3:-3 / analyse=0x3:0x113 / me=umh / subme=10 / psy=1 / psy_rd=1.20:0.00 / mixed_ref=1 / me_range=32 / chroma_me=1 / trellis=2 / 8x8dct=1 / cqm=0 / deadzone=21,11 / fast_pskip=0 / chroma_qp_offset=-2 / threads=12 / lookahead_threads=2 / sliced_threads=0 / nr=0 / decimate=1 / interlaced=0 / bluray_compat=0 / constrained_intra=0 / bframes=9 / b_pyramid=2 / b_adapt=2 / b_bias=0 / direct=3 / weightb=1 / open_gop=0 / weightp=2 / keyint=250 / keyint_min=23 / scenecut=40 / intra_refresh=0 / rc=2pass / mbtree=0 / bitrate=9800 / ratetol=1.0 / qcomp=0.60 / qpmin=0 / qpmax=69 / qpstep=4 / cplxblur=20.0 / qblur=0.5 / ip_ratio=1.40 / pb_ratio=1.30 / aq=1:1.10
Язык                                     : English
Default                                  : Да
Forced                                   : Нет
Аудио #1
Идентификатор                            : 2
Формат                                   : AC-3
Формат/Информация                        : Audio Coding 3
Расширение режима                        : CM (complete main)
Идентификатор кодека                     : A_AC3
Продолжительность                        : 1 ч. 34 м.
Вид битрейта                             : Постоянный
Битрейт                                  : 224 Кбит/сек
Каналы                                   : 2 канала
Расположение каналов                     : Front: L R
Частота                                  : 48,0 КГц
Битовая глубина                          : 16 бит
Метод сжатия                             : С потерями
Размер потока                            : 152 Мбайт (2%)
Заголовок                                : VO [VANO]
Язык                                     : Russian
Default                                  : Да
Forced                                   : Нет
Аудио #2
Идентификатор                            : 3
Формат                                   : DTS
Формат/Информация                        : Digital Theater Systems
Идентификатор кодека                     : A_DTS
Продолжительность                        : 1 ч. 34 м.
Вид битрейта                             : Постоянный
Битрейт                                  : 1510 Кбит/сек
Каналы                                   : 6 каналов
Расположение каналов                     : Front: L C R, Side: L R, LFE
Частота                                  : 48,0 КГц
Битовая глубина                          : 24 бит
Метод сжатия                             : С потерями
Размер потока                            : 1022 Мбайт (13%)
Язык                                     : English
Default                                  : Нет
Forced                                   : Нет
Аудио #3
Идентификатор                            : 4
Формат                                   : AC-3
Формат/Информация                        : Audio Coding 3
Расширение режима                        : CM (complete main)
Идентификатор кодека                     : A_AC3
Продолжительность                        : 1 ч. 34 м.
Вид битрейта                             : Постоянный
Битрейт                                  : 192 Кбит/сек
Каналы                                   : 2 канала
Расположение каналов                     : Front: L R
Частота                                  : 48,0 КГц
Битовая глубина                          : 16 бит
Метод сжатия                             : С потерями
Размер потока                            : 130 Мбайт (2%)
Заголовок                                : Commentary by Aimee Lagos and David Oyelowo
Язык                                     : English
Default                                  : Нет
Forced                                   : Нет
Текст
Идентификатор                            : 5
Формат                                   : UTF-8
Идентификатор кодека                     : S_TEXT/UTF8
Идентификатор кодека/Информация          : UTF-8 Plain Text
Заголовок                                : fansub
Язык                                     : English
Default                                  : Нет
Forced                                   : Нет
Меню
00:00:00.000                             : de:1:  Opening Credits
00:00:40.499                             : de:2:  Who is she?
00:09:22.937                             : de:3:  What are you doing
00:20:02.827                             : de:4:  You a tough girl
00:28:29.291                             : de:5:  I should've walked
00:36:00.492                             : de:6:  I'll get directions
00:42:20.455                             : de:7:  Take a walk with me
00:50:29.985                             : de:8:  It'll be a'ight
00:57:36.286                             : de:9:  Give me the keys!
01:08:46.372                             : de:10:  Somebody help me!
01:18:49.975                             : de:11:  I was weak
01:28:35.101                             : de:12:  End credits

x264 Info

x264 [info]: frame I:659 Avg QP:14.18 size:145051
x264 [info]: frame P:33814 Avg QP:15.51 size: 73001
x264 [info]: frame B:101697 Avg QP:17.83 size: 43157
Other forum [Profile] [PM]
Display posts from previous:    
Reply to topic

The time now is: Today 20:31

All times are GMT + 3 Hours



You cannot post new topics in this forum
You cannot reply to topics in this forum
You cannot edit your posts in this forum
You cannot delete your posts in this forum
You cannot vote in polls in this forum
You cannot attach files in this forum
You cannot download files in this forum