Today is a free download without charge Download

Деффчонки (Мымра) / Сезон: 2 / Серии: 34 из ?? (Сергей Корягин, Н.Сайфуллаева) [2013, Ситком, DVB-Ямал С]

Reply to topic
 
Author
Message

Omen ®

Longevity: 9 years

Posts: 181086

Торрент-статистика

Post 26-Feb-2013 14:40

[Quote]

Деффчонки (Мымра)
Год выпуска: 2013
Производство: Россия
Жанр: Ситком
Продолжительность:
Режиссёр: Сергей Корягин, Н.Сайфуллаева
В ролях: Таисия Вилкова, Алексей Воробьёв, Тимур Боканча, Полина Максимова, Александр Серов-Останкинский, Родион Юрин, Галина Боб, Анастасия Денисова (II)
Режиссеры: Сергей Корягин
Описание: Чтобы привлечь внимание Игоря Михалыча, Пална решает изобразить успех у мужчин и заказывает себе шикарный букет "от поклонника". А Васька ссорится с сестрой и уходит жить в общежитие...
Все раздачи сериала
Запись со спутника Ямал С
Качество: DVB
Формат: MPEG-PS
Видео кодек: MPEG2
Аудио кодек: MP2
Видео: 720х576, 4:3, 3733 Kbps, 25 fps
Аудио: 192 Kbps, 48.0 KHz, 2 ch

MI

F:\КОМЕДИИ\Деффчонки (Мымра).mpg
General
Complete name : F:\КОМЕДИИ\Деффчонки (Мымра).mpg
Format : MPEG-PS
File size : 679 MiB
Duration : 23mn 41s
Overall bit rate mode : Variable
Overall bit rate : 4 004 Kbps
Writing library : (c) 1998-2011 Womble Multimedia, Inc. / MPEG Video Wizard DVD 5.0.1.100 (03/2011) / May 27 2011
Video #224
ID : 224 (0xE0)
Format : MPEG Video
Format version : Version 2
Format profile : [email protected]
Format settings, BVOP : Yes
Format settings, Matrix : Custom
Duration : 23mn 41s
Bit rate mode : Variable
Bit rate : 3 732 Kbps
Maximum bit rate : 15.0 Mbps
Width : 720 pixels
Height : 576 pixels
Display aspect ratio : 4:3
Frame rate : 25.000 fps
Standard : PAL
Color space : YUV
Chroma subsampling : 4:2:0
Bit depth : 8 bits
Scan type : Progressive
Scan order : Top Field First
Compression mode : Lossy
Bits/(Pixel*Frame) : 0.360
Stream size : 633 MiB (93%)
Writing library : (c) 1998-2011 Womble Multimedia, Inc. / MPEG Video Wizard DVD 5.0.1.100 (03/2011) / May 27 2011
Audio #192
ID : 192 (0xC0)
Format : MPEG Audio
Format version : Version 1
Format profile : Layer 2
Duration : 23mn 41s
Bit rate mode : Constant
Bit rate : 192 Kbps
Channel(s) : 2 channels
Sampling rate : 48.0 KHz
Compression mode : Lossy
Stream size : 32.5 MiB (5%)

Скриншоты

Other forum [Profile] [PM]
Display posts from previous:    
Reply to topic

The time now is: Today 17:58

All times are GMT + 3 Hours



You cannot post new topics in this forum
You cannot reply to topics in this forum
You cannot edit your posts in this forum
You cannot delete your posts in this forum
You cannot vote in polls in this forum
You cannot attach files in this forum
You cannot download files in this forum