Today is a free download without charge Download

Девушка, которая играла с огнем / Flickan som lekte med elden (Дэниэл Альфредсон / Daniel Alfredson) [2009, Швеция, Дания, Германия, триллер, драма, криминал, детектив, BDRip 1080p] MVO + Original + subs (Rus, Eng, Swe, Ger)

Reply to topic
 
Author
Message

Omen ®

Longevity: 8 years 5 months

Posts: 181087

Торрент-статистика

Post 26-Feb-2013 14:40

[Quote]

Девушка, которая играла с огнем / Flickan som lekte med elden- Год выпуска: 2009
Страна: Швеция, Дания, Германия
Жанр: триллер, драма, криминал, детектив
Продолжительность: 02:04:16
Перевод: Профессиональный (многоголосый, закадровый)
Оригинальная звуковая дорожка: English
Cубтитры: English, German, Russian, Swedish-Режиссер: Дэниэл Альфредсон / Daniel Alfredson
В ролях: Микаэл Нюквист, Нуми Рапас, Лена Эндре, Петер Андерссон, Михалис Куцогиннакис, Анника Халлин, София Ледарп, Джейкоб Эрикссон, Рубен Сэллмендер, Ясмин Гарби
Описание: Поздно вечером в своей квартире застрелены журналист и его подруга - люди, изучавшие каналы поставки в Швецию секс-рабынь из Восточной Европы. Среди клиентов малопочтенного бизнеса замечены представители властных структур. Кажется очевидным, каким кругам была выгодна смерть этих двоих. Микаэл Блумквист начинает собственное расследование гибели своих коллег и друзей и вдруг узнает, что в убийстве подозревают его давнюю знакомую Лисбет Саландер, самую странную девушку на свете, склонную играть с огнем - к примеру, заливать его бензином. По всей Швеции идет охота на «убийцу-психопатку», но Лисбет не боится бросить вызов кому угодно - и мафии, и общественным структурам, и самой смерти.-Релиз: by Skazhutin
Формат: MKV
Видео: 1920x1080 at 25.000 fps, [email protected], 2pass, ~24000 kbps avg
Аудио #1: Russian: 48 kHz, DTS, 3/2 (L,C,R,l,r) + LFE ch, ~1536.00 kbps avg |Многоголосый закадровый|
Аудио #2: English: 48 kHz, DTS, 3/2 (L,C,R,l,r) + LFE ch, ~1536.00 kbps avg
Семпл-

-

mInfo


Формат : Matroska
Версия формата : Version 4 / Version 2
Размер файла : 23,4 Гбайт
Продолжительность : 2 ч. 4 м.
Общий поток : 27,0 Мбит/сек
Название фильма : Flickan som lekte med elden (2009) - Release for HDCLUB by Skazhutin
Дата кодирования : UTC 2013-02-25 06:54:48
Программа кодирования : mkvmerge v6.0.0 ('Coming Up For Air') built on Jan 20 2013 09:52:00
Библиотека кодирования : libebml v1.3.0 + libmatroska v1.4.0
Attachment : Yes / Yes
Видео
Идентификатор : 1
Формат : AVC
Формат/Информация : Advanced Video Codec
Профиль формата : [email protected]
Параметр CABAC формата : Да
Параметр ReFrames формата : 4 кадра
Идентификатор кодека : V_MPEG4/ISO/AVC
Продолжительность : 2 ч. 4 м.
Битрейт : 24,0 Мбит/сек
Ширина : 1920 пикселей
Высота : 1080 пикселей
Соотношение сторон : 16:9
Частота кадров : 25,000 кадров/сек
Цветовое пространство : YUV
Субдискретизация насыщенности : 4:2:0
Битовая глубина : 8 бит
Тип развёртки : Прогрессивная
Бит/(Пиксели*Кадры) : 0.463
Размер потока : 20,4 Гбайт (87%)
Заголовок : Release for HDCLUB
Библиотека кодирования : x264 core 129 r2245kMod bc13772
Настройки программы : cabac=1 / ref=4 / deblock=1:-3:-3 / analyse=0x3:0x113 / me=umh / subme=11 / psy=1 / fade_compensate=0.00 / psy_rd=1.00:0.00 / mixed_ref=1 / me_range=48 / chroma_me=1 / trellis=2 / 8x8dct=1 / cqm=0 / deadzone=21,11 / fast_pskip=0 / chroma_qp_offset=-2 / threads=12 / lookahead_threads=2 / sliced_threads=0 / nr=0 / decimate=0 / interlaced=0 / bluray_compat=0 / constrained_intra=0 / bframes=10 / b_pyramid=2 / b_adapt=2 / b_bias=0 / direct=3 / weightb=1 / open_gop=0 / weightp=2 / keyint=250 / keyint_min=25 / scenecut=40 / intra_refresh=0 / rc_lookahead=120 / rc=2pass / mbtree=1 / bitrate=24000 / ratetol=1.0 / qcomp=0.80 / qpmin=0 / qpmax=69 / qpstep=4 / cplxblur=20.0 / qblur=0.5 / vbv_maxrate=50000 / vbv_bufsize=62500 / nal_hrd=none / ip_ratio=1.40 / aq=1:0.70
Язык : Swedish
Коэффициенты матрицы : BT.709-5, BT.1361, IEC 61966-2-4 709, SMPTE RP177
Аудио #1
Идентификатор : 2
Формат : DTS
Формат/Информация : Digital Theater Systems
Идентификатор кодека : A_DTS
Продолжительность : 2 ч. 4 м.
Вид битрейта : Постоянный
Битрейт : 1510 Кбит/сек
Каналы : 6 каналов
Расположение каналов : Front: L C R, Side: L R, LFE
Частота : 48,0 КГц
Битовая глубина : 24 бит
Метод сжатия : С потерями
Размер потока : 1,31 Гбайт (6%)
Заголовок : DTS 5.1 @ 1536 kbps - MVO, Blu-ray
Язык : Russian
Аудио #2
Идентификатор : 3
Формат : DTS
Формат/Информация : Digital Theater Systems
Идентификатор кодека : A_DTS
Продолжительность : 2 ч. 4 м.
Вид битрейта : Постоянный
Битрейт : 1510 Кбит/сек
Каналы : 6 каналов
Расположение каналов : Front: L C R, Side: L R, LFE
Частота : 48,0 КГц
Битовая глубина : 24 бит
Метод сжатия : С потерями
Размер потока : 1,31 Гбайт (6%)
Заголовок : DTS 5.1 @ 1536 kbps
Язык : Swedish
Текст #1
Идентификатор : 4
Формат : UTF-8
Идентификатор кодека : S_TEXT/UTF8
Идентификатор кодека/Информация : UTF-8 Plain Text
Язык : English
Текст #2
Идентификатор : 5
Формат : UTF-8
Идентификатор кодека : S_TEXT/UTF8
Идентификатор кодека/Информация : UTF-8 Plain Text
Язык : German
Текст #3
Идентификатор : 6
Формат : UTF-8
Идентификатор кодека : S_TEXT/UTF8
Идентификатор кодека/Информация : UTF-8 Plain Text
Язык : Russian
Текст #4
Идентификатор : 7
Формат : UTF-8
Идентификатор кодека : S_TEXT/UTF8
Идентификатор кодека/Информация : UTF-8 Plain Text
Язык : Swedish
Меню
00:00:00.000 : en:Chapter 1
00:04:58.960 : en:Chapter 2
00:12:27.120 : en:Chapter 3
00:20:32.800 : en:Chapter 4
00:26:39.720 : en:Chapter 5
00:31:48.360 : en:Chapter 6
00:38:38.479 : en:Chapter 7
00:43:10.000 : en:Chapter 8
00:50:25.279 : en:Chapter 9
00:54:00.920 : en:Chapter 10
00:58:47.640 : en:Chapter 11
01:07:09.080 : en:Chapter 12
01:13:01.200 : en:Chapter 13
01:19:12.520 : en:Chapter 14
01:25:29.400 : en:Chapter 15
01:33:59.800 : en:Chapter 16
01:40:56.360 : en:Chapter 17
01:52:31.480 : en:Chapter 18
01:58:46.400 : en:Chapter 19
02:00:13.360 : en:Chapter 20

-

Log


x264.INFO:
x264 [info]: frame I:1046 Avg QP:21.03 size:262302
x264 [info]: frame P:34476 Avg QP:23.03 size:135688
x264 [info]: frame B:150883 Avg QP:23.73 size:115349
x264 [info]: consecutive B-frames: 1.0% 1.1% 5.0% 7.1% 18.0% 47.2% 10.5% 3.4% 2.2% 3.5% 1.0%
-
Other forum [Profile] [PM]
Similar theme
Forum Topic Author Torrent Replies Last Post
./templates/default/images/folder_dl.gif Обучающее видео Алекс Мэй | Как организовать секс с двумя девушками (2011) CamRip Omen
1 | 0

0 | 2184

90

2015-05-19 18:27
Omen Latest
Display posts from previous:    
Reply to topic

The time now is: Today 11:11

All times are GMT + 3 Hours



You cannot post new topics in this forum
You cannot reply to topics in this forum
You cannot edit your posts in this forum
You cannot delete your posts in this forum
You cannot vote in polls in this forum
You cannot attach files in this forum
You cannot download files in this forum