Today is a free download without charge Download

Принцип Хабарова / Заклятые друзья / Серии: 1-4 из 8 (Андрей Щербинин) [2012, Детектив, криминал, боевик, SATRip]

Reply to topic
 
Author
Message

Omen ®

Longevity: 9 years 1 month

Posts: 181086

Торрент-статистика

Post 26-Feb-2013 05:32

[Quote]

Принцип Хабарова / Заклятые друзья
Год выпуска: 2012
Производство: Россия, Студия "Панорама"
Жанр: Детектив, криминал, боевик
Продолжительность: 4х ~ 00:44:00
Субтитры: нет
Режиссёр: Андрей Щербинин
В ролях: Александр Марушев, Даниил Страхов, Людмила Харитонова, Игорь Николаев (II), Екатерина Зорина, Александр Блок, Роман Грибков, Юлия Рудина, Михаил Батуев, Александра Мареева (II), Юлия Нижельская, Наталья Иохвидова, Серафима Низовская, Диана Дезмари, Руслан Кацагаджиев, Алина Кикеля, Данила Воропаев, Сергей Гарусов, Сергей Рублёв, Александр Овчинников (III), Андрей Бордухаев, Сергей Воробьёв (IV)
Описание: На улице недалеко от своего дома от руки наёмного убийцы погибает близкий друг и заместитель начальника отдельной оперативно-следственной группы ГУВД полковника Хабарова. Его смерть заставляет полковника отложить на будущее планы выхода на пенсию. Расследование убийства он вынужден начать вместе с новым подчинённым - майором Ершовым, которого неуживчивому полковнику навязывает руководство. Первые же совместные шаги полицейских показали, что сработаться им будет очень непросто. Опытный, уверенный в своих силах Ершов во всём привык полагаться на самого себя, но Хабаров, сам обладающий независимым характером, не станет спокойно мириться со своеволием подчинённого, а методы, которыми пользуется Ершов, иногда кажутся ему просто возмутительными. Тем не менее, со временем складывается своеобразный дуэт двух этих незаурядных детективов и, хотя трения между ними не утихают, каждое новое дело становится доказательством их высокого профессионализма.
Сэмпл: http://multi-up.com/835848
Качество: SATRip
Формат: AVI
Видео кодек: XviD
Аудио кодек: MP3
Видео: 720x400 (1.80:1), 25 fps, XviD build 50 ~1580 kbps avg, 0.22 bit/pixel
Аудио: 48 kHz, MPEG Layer 3, 2 ch, ~192.00 kbps avg
Релиз от:

MI

General
Complete name : V:\ftp4\Videos\Printsip.Khabarova.01.seriya.2013.XviD.SATRip.Files-x.avi
Format : AVI
Format/Info : Audio Video Interleave
File size : 550 MiB
Duration : 43mn 7s
Overall bit rate : 1 783 Kbps
Writing application : VirtualDubMod 1.5.10.3 | www.virtualdub-fr.org || (build 2550/release)
Writing library : VirtualDubMod build 2550/release
Video
ID : 0
Format : MPEG-4 Visual
Format profile : Advanced [email protected]
Format settings, BVOP : 1
Format settings, QPel : No
Format settings, GMC : No warppoints
Format settings, Matrix : Default (H.263)
Codec ID : XVID
Codec ID/Hint : XviD
Duration : 43mn 7s
Bit rate : 1 581 Kbps
Width : 720 pixels
Height : 400 pixels
Display aspect ratio : 16:9
Frame rate : 25.000 fps
Color space : YUV
Chroma subsampling : 4:2:0
Bit depth : 8 bits
Scan type : Progressive
Compression mode : Lossy
Bits/(Pixel*Frame) : 0.220
Stream size : 488 MiB (89%)
Writing library : XviD 1.2.1 (UTC 2008-12-04)
Audio
ID : 1
Format : MPEG Audio
Format version : Version 1
Format profile : Layer 3
Codec ID : 55
Codec ID/Hint : MP3
Duration : 43mn 7s
Bit rate mode : Constant
Bit rate : 192 Kbps
Channel(s) : 2 channels
Sampling rate : 48.0 KHz
Compression mode : Lossy
Stream size : 59.2 MiB (11%)
Alignment : Aligned on interleaves
Interleave, duration : 40 ms (1.00 video frame)
Interleave, preload duration : 504 ms
Writing library : LAME3.98r
Encoding settings : -m s -V 4 -q 2 -lowpass 18.6 -b 192

Скриншоты

Раздача ведется путем добавления новых серий

Внимание! Раздача ведётся путём добавления новых серий; при каждом добавлении создётся новый торрент. Чтобы начать докачку новой серии, пользователям необходимо сделать следующее:
(1) остановить скачивание,
(2) удалить старый торрент у себя из клиента (старые серии удалять не надо),
(3) скачать новый торрент и запустить его у себя в клиенте вместо старого, при этом указать клиенту путь в старую папку куда и должно происходить скачивание новых серий.
Ваш клиент при этом должен произвести хеширование (проверку) старой папки (если не производит сам - помогите ему сделать это), и будет докачивать только те серии которых у вас ещё нет. Старые серии при этом не удаляются, а продолжают раздаваться!
Eсли вы уже удалили старые серии, то предотвратить повторную закачку старых серий можно, отжав галочку в соответствующих местах при запуске нового торрента.
Other forum [Profile] [PM]
Display posts from previous:    
Reply to topic

The time now is: Today 04:55

All times are GMT + 3 Hours



You cannot post new topics in this forum
You cannot reply to topics in this forum
You cannot edit your posts in this forum
You cannot delete your posts in this forum
You cannot vote in polls in this forum
You cannot attach files in this forum
You cannot download files in this forum