Today is a free download without charge Download

По горячим следам / Сезон 02 / Серии: 01-02 из 16 (Илья Максимов) [2012, Детектив, HDTV, 1080i]

Reply to topic
 
Author
Message

Omen ®

Longevity: 9 years

Posts: 181086

Торрент-статистика

Post 26-Feb-2013 05:32

[Quote]

По горячим следам
Год выпуска: 2012
Производство: Мотор фильм студия
Жанр: Детектив
Продолжительность: ~ 00:45:00 / серия
Субтитры: Отсутствуют
Режиссёр: Илья Максимов
В ролях: Мария Порошина, Вячеслав Разбегаев, Дарья Сагалова, Василий Брыков, Александр Тютин, Андрей Балякин, Андрей Кравчук (II), Кристина Савина, Владимир Епифанцев, Дмитрий Титов, Татьяна Лучинина, Наталья Тищенко, Мария Дмитриева, Василий Куприянов, Ольга Мокшина, Дмитрий Скачков, Егор Тимцуник, Олег Захарутин, Евгений Гурьянов, Виталий Евдокимов, Борис Зверев, Сергей Кисса, Анатолий Морозов, Андрей Муравьёв, Алан Плиев, Татьяна Покроева, Сергей Стегайлов, Татьяна Рощина, Юрий Внуков, Александр Макаров, Сергей Проценко, Варвара Репецкая, Ян Романов, Дарья Щербакова, Лия Кетлерова, Владимир Бобров, Виктор Довженко, Максим Дромашко, Елена Куликова, Владимир Лободин, Ирина Никитина, Владимир Прянчин, Екатерина Добровская, Оксана Спиричева, Михаил Гаспарян, Ольга Кузьмина, Карим Пакачаков, Давид Степанян, Виктор Удочкин, Аким Ефремов, Егор Клейменов, Юрий Печенежский, Светлана Чернышева, Наталья Яськова, Александр Числов, Рустам Абдрашитов, Татьяна Павлуцкая, Вячеслав Туник, Александр Шаляпин, Вячеслав Троицкий, Валентин Юнин, Игорь Литовкин (II), Дана Назарова, Елизавета Курбанмагомедова, Елизавета Кюблер, Юрий Котов (II), Евгений Харитонов (III), Кристина Пучкова и другие.
Описание: Главные герои сериала, Суворова и Шульгин, любят друг друга и собираются объявить всем о своих отношениях. Но возникает неожиданное препятствие – Шульгин получает известие, что женщина по имени Елена, которую он когда-то любил и считал трагически погибшей по его вине, жива. Не разобравшись со своим прошлым, Шульгин не может строить отношения с Суворовой. Кроме того, Елена - ключевой свидетель в давнем незаконченном деле об убийстве. Шульгин не посвящает Суворову в свое расследование, считает это дело слишком личным. И когда Суворова узнаёт о происходящем, ее это сильно задевает. Она вдруг понимает, что совсем ничего не знает про Шульгина: кто он, откуда, каким он был до неё? Они отдаляются друг от друга. Суворова начинает своё параллельное расследование, надеясь тем самым помочь Шульгину и выяснить что-то для себя. На этом пути они встречают множество преград, их любовь трещит по швам, но, тем не менее, они постепенно, шаг за шагом, узнают друг друга.
Сэмпл: http://multi-up.com/835783
Доп. информация: Релиз -

Рип чистый (Прямой поток). Без посторонних надписей. Выкладывается как есть.
Качество: HDTV 1080i
Контейнер: TS
Видео кодек: AVC
Аудио кодек: AC3
Видео: 1920x1080 (16:9) 25.000 fps 7 856 Kbps, 0.151 bit/pixel
Аудио: MPEG Audio 48000Hz stereo 192 Кбит/сек

Скриншоты


MI

GeneralID : 1 (0x1)Complete name : M:\ВЫКЛАДКА\HDTV\Сериалы\По горячим следам. Второй сезон (2012, Сериал, Детектив, HDTV) (MYDIMKA)\01 серия.tsFormat : MPEG-TSFile size : 2.65 GiBDuration : 44mn 57sOverall bit rate mode : VariableOverall bit rate : 8 437 Kbps
VideoID : 2911 (0xB5F)Menu ID : 1 (0x1)Format : AVCFormat/Info : Advanced Video CodecFormat profile : [email protected] settings, CABAC : YesFormat settings, ReFrames : 4 framesCodec ID : 27Duration : 44mn 57sBit rate : 7 826 KbpsWidth : 1 920 pixelsHeight : 1 080 pixelsDisplay aspect ratio : 16:9Frame rate : 25.000 fpsColor space : YUVChroma subsampling : 4:2:0Bit depth : 8 bitsScan type : MBAFFBits/(Pixel*Frame) : 0.151Stream size : 2.46 GiB (93%)
AudioID : 2912 (0xB60)Menu ID : 1 (0x1)Format : MPEG AudioFormat version : Version 1Format profile : Layer 2Codec ID : 3Duration : 44mn 57sBit rate mode : ConstantBit rate : 192 KbpsChannel(s) : 2 channelsSampling rate : 48.0 KHzCompression mode : LossyStream size : 61.7 MiB (2%)Language : Russian

Внимание! Раздача ведётся путём добавления новых выпусков

Внимание! Раздача ведётся путём добавления новых выпусков; при каждом добавлении создётся новый торрент. Чтобы начать докачку нового выпуска, пользователям необходимо сделать следующее:
(1) остановить скачивание,
(2) удалить старый торрент у себя из клиента (старые выпуски удалять не надо),
(3) скачать новый торрент и запустить его у себя в клиенте вместо старого, при этом указать клиенту путь в старую папку куда и должно происходить скачивание новых выпусков.
Ваш клиент при этом должен произвести хеширование (проверку) старой папки (если не производит сам - помогите ему сделать это), и будет докачивать только те выпуски которых у вас ещё нет. Старые выпуски при этом не удаляются, а продолжают раздаваться!
Eсли вы уже удалили старые выпуски, то предотвратить повторную закачку старых выпусков можно, отжав галочку в соответсвующих местах при запуске нового торрента. По возможности, желательно не удалять старые выпуски как можно дольше чтобы релизёр не столько продолжал раздавать старые выпуски, а смог сконцентрироваться на новых.
Other forum [Profile] [PM]
Display posts from previous:    
Reply to topic

The time now is: Today 18:28

All times are GMT + 3 Hours



You cannot post new topics in this forum
You cannot reply to topics in this forum
You cannot edit your posts in this forum
You cannot delete your posts in this forum
You cannot vote in polls in this forum
You cannot attach files in this forum
You cannot download files in this forum