Today is a free download without charge Download

Заложница 2 / Taken 2 (Оливье Мегатон / Olivier Megaton) [2012, Франция, боевик, триллер, криминал, BDRip 1080p] Dub (Лицензия) + MVO (Ukr) + Sub Rus + Sub Eng + Original Eng

Reply to topic
 
Author
Message

Omen ®

Longevity: 8 years 5 months

Posts: 181087

Торрент-статистика

Post 26-Feb-2013 05:32

[Quote]

Заложница 2 / Taken 2 / Театральная версия / Theatrical Cut
Страна: Франция
Жанр: боевик, триллер, криминал
Год выпуска: 2012
Продолжительность: 01:32:07
Перевод: Профессиональный (дублированный) Лицензия
Cубтитры: русские, английские
Оригинальная аудиодорожка: английский
Режиссер: Оливье Мегатон / Olivier Megaton
В ролях: Лиам Нисон (Bryan Mills), Мэгги Грэйс (Kim), Фамке Янссен (Lenore), Лиленд Орсер (Sam), Джон Грайз (Casey), Д.Б. Суини (Bernie), Люк Граймс (Jamie), Раде Шербеджия (Murad Krasniqi), Кеворк Маликян (Inspector Durmaz), Ален Фиглаж (Suko), Фрэнк Альварез (Car Wash Attendant), Мурат Тунселли (Custom Officer Albania)
Описание: Брайану Миллсу придется расхлебывать последствия своих действий. Спасая свою дочь, он убил главаря банды, у которого — сюрприз! — есть отец по имени Мурад. Мурад жаждет отмщения и описывается как человек, отдающий приказы, но сам никогда никому не подчиняющийся. Мурад берет в заложники Миллса с супругой, и тут уже Ким Миллс нужно будет спасать своих родителей.
Качество видео: BDRip 1080p
Формат видео: MKV | Sample
Видео: 1920x804p (2.40:1), 23.976 fps, AVC MPEG4(x264), [email protected]4.1 ~18.2 Mbps avg, 0.492 bit/pixel
Аудио: Русский: 48 kHz, DTS , 6 ch, ~755 kbps avg [Профессиональный (полное дублирование)]
Аудио 2: Украинский: 48 kHz, AC3 Dolby Digital, 6 ch, ~384 kbps avg [Профессиональный (многоголосый, закадровый)]
Аудио 3: Английский: 48 kHz, DTS , 6 ch, ~1510 kbps avg [Оригинал]

MediaInfo

General
Unique ID : 187022028802173856806251123680196980008 (0x8CB321EEFE9427D192EFB77921AC6D28)
Complete name : E:\Downloads\Taken.2.2012.BDRip.1080p.mkv
Format : Matroska
Format version : Version 2
File size : 13.4 GiB
Duration : 1h 32mn
Overall bit rate : 20.8 Mbps
Movie name : Taken 2
Encoded date : UTC 2013-02-07 10:30:21
Writing application : mkvmerge v5.2.0 ('I can't explain') built on Dec 18 2011 18:12:03
Writing library : libebml v1.2.3 + libmatroska v1.3.0
Video
ID : 1
Format : AVC
Format/Info : Advanced Video Codec
Format profile : [email protected]
Format settings, CABAC : Yes
Format settings, ReFrames : 5 frames
Codec ID : V_MPEG4/ISO/AVC
Duration : 1h 32mn
Bit rate : 18.2 Mbps
Width : 1 920 pixels
Height : 804 pixels
Display aspect ratio : 2.40:1
Frame rate mode : Constant
Frame rate : 23.976 fps
Color space : YUV
Chroma subsampling : 4:2:0
Bit depth : 8 bits
Scan type : Progressive
Bits/(Pixel*Frame) : 0.492
Stream size : 11.4 GiB (85%)
Title : Taken 2 2012 Theatrical Cut 1080p BluRay DTS x264-IRONCLUB
Writing library : x264 core 129 r2230kMod 1cffe9f
Encoding settings : cabac=1 / ref=5 / deblock=1:-3:-3 / analyse=0x3:0x113 / me=umh / subme=10 / psy=1 / fade_compensate=0.00 / psy_rd=1.15:0.00 / mixed_ref=1 / me_range=48 / chroma_me=1 / trellis=2 / 8x8dct=1 / cqm=0 / deadzone=21,11 / fast_pskip=0 / chroma_qp_offset=-2 / threads=12 / lookahead_threads=2 / sliced_threads=0 / nr=0 / decimate=1 / interlaced=0 / bluray_compat=0 / constrained_intra=0 / bframes=7 / b_pyramid=2 / b_adapt=2 / b_bias=0 / direct=3 / weightb=1 / open_gop=0 / weightp=2 / keyint=250 / keyint_min=23 / scenecut=40 / intra_refresh=0 / rc_lookahead=192 / rc=2pass / mbtree=0 / bitrate=18200 / ratetol=1.0 / qcomp=0.75 / qpmin=0 / qpmax=69 / qpstep=4 / cplxblur=20.0 / qblur=0.5 / vbv_maxrate=50000 / vbv_bufsize=62500 / nal_hrd=none / ip_ratio=1.25 / pb_ratio=1.25 / aq=1:0.80
Language : English
Default : Yes
Forced : Yes
Matrix coefficients : BT.709
Audio #1
ID : 2
Format : DTS
Format/Info : Digital Theater Systems
Mode : 16
Format settings, Endianness : Big
Codec ID : A_DTS
Duration : 1h 32mn
Bit rate mode : Constant
Bit rate : 755 Kbps
Channel(s) : 6 channels
Channel positions : Front: L C R, Side: L R, LFE
Sampling rate : 48.0 KHz
Bit depth : 24 bits
Compression mode : Lossy
Stream size : 497 MiB (4%)
Title : DTS 5.1 @ 768 kbps - Dub, BD RUS
Language : Russian
Default : Yes
Forced : Yes
Audio #2
ID : 3
Format : AC-3
Format/Info : Audio Coding 3
Mode extension : CM (complete main)
Format settings, Endianness : Big
Codec ID : A_AC3
Duration : 1h 32mn
Bit rate mode : Constant
Bit rate : 384 Kbps
Channel(s) : 6 channels
Channel positions : Front: L C R, Side: L R, LFE
Sampling rate : 48.0 KHz
Bit depth : 16 bits
Compression mode : Lossy
Stream size : 253 MiB (2%)
Title : DD 5.1 @ 384 kbps - MVO, Omikron
Language : Ukrainian
Default : No
Forced : No
Audio #3
ID : 4
Format : DTS
Format/Info : Digital Theater Systems
Mode : 16
Format settings, Endianness : Big
Codec ID : A_DTS
Duration : 1h 32mn
Bit rate mode : Constant
Bit rate : 1 509 Kbps
Channel(s) : 6 channels
Channel positions : Front: L C R, Side: L R, LFE
Sampling rate : 48.0 KHz
Bit depth : 24 bits
Compression mode : Lossy
Stream size : 994 MiB (7%)
Title : DTS 5.1 @ 1536 kbps
Language : English
Default : No
Forced : No
Text #1
ID : 5
Format : UTF-8
Codec ID : S_TEXT/UTF8
Codec ID/Info : UTF-8 Plain Text
Language : Russian
Default : No
Forced : No
Text #2
ID : 6
Format : UTF-8
Codec ID : S_TEXT/UTF8
Codec ID/Info : UTF-8 Plain Text
Title : Forced
Language : English
Default : No
Forced : No
Text #3
ID : 7
Format : UTF-8
Codec ID : S_TEXT/UTF8
Codec ID/Info : UTF-8 Plain Text
Title : SDH
Language : English
Default : No
Forced : No
Menu
00:00:00.000 : en:00:00:00.000
00:04:18.424 : en:00:04:18.424
00:07:24.694 : en:00:07:24.694
00:08:51.280 : en:00:08:51.280
00:12:45.389 : en:00:12:45.389
00:16:01.669 : en:00:16:01.669
00:19:41.179 : en:00:19:41.179
00:22:06.283 : en:00:22:06.283
00:25:10.926 : en:00:25:10.926
00:30:22.946 : en:00:30:22.946
00:34:48.169 : en:00:34:48.169
00:38:06.992 : en:00:38:06.992
00:41:31.322 : en:00:41:31.322
00:45:37.985 : en:00:45:37.985
00:50:35.991 : en:00:50:35.991
00:56:38.853 : en:00:56:38.853
01:00:21.617 : en:01:00:21.617
01:04:41.252 : en:01:04:41.252
01:07:06.939 : en:01:07:06.939
01:10:28.265 : en:01:10:28.265
01:15:44.831 : en:01:15:44.831
01:19:28.471 : en:01:19:28.471
01:23:06.648 : en:01:23:06.648
01:26:02.824 : en:01:26:02.824

Скриншот c названием фильма

Скриншоты

Other forum [Profile] [PM]
Display posts from previous:    
Reply to topic

The time now is: Today 11:21

All times are GMT + 3 Hours



You cannot post new topics in this forum
You cannot reply to topics in this forum
You cannot edit your posts in this forum
You cannot delete your posts in this forum
You cannot vote in polls in this forum
You cannot attach files in this forum
You cannot download files in this forum