Today is a free download without charge Download

Золотой капкан / Серии: 1-12 из 12 (Станислав Дремов) [2010, боевик, WEBRip 720p]

Reply to topic
 
Author
Message

Omen ®

Longevity: 9 years 1 month

Posts: 181086

Торрент-статистика

Post 25-Feb-2013 21:56

[Quote]

Золотой капкан
Год выпуска: 2010
Производство: RWS (Всмирные русские студии)
Жанр: боевик
Продолжительность: 00:48:00
Режиссёр: Станислав Дремов
В ролях: Евгений Дятлов, Александр Голубев, Вячеслав Разбегаев, Олег Морозов, Светлана Устинова, Юрий Цурило, Сергей Красовский, Алексей Величко, Дмитрий Лунев, Павел Ребрик, Владимир Галась, Яков Шамшин, Юрий Кузнецов, Дарья Циберкина, Кристина Кузьмина, Артутр Ваха, Дмитрий Поднозов
Описание: Случайные знакомые — бывший танкист Андрей Новиков и никогда не служивший в армии Юра Мартов — оказываются в поисках денег на золотом прииске, в мире, где главная и единственная ценность — желтый металл, а человек — лишь орудие его добычи. Правила устанавливает «золотая мафия», которая с помощью надсмотрщиков, прозванных «блатными», контролирует доходное «предприятие» в тайге. В конце каждого сезона от старателей, как он ненужных свидетелей, бесшумно избавляются, прибрав к рукам заработанную ими долю. Пытаясь остаться в стороне от тайной жизни прииска, Андрей и Юра очень скоро понимают, что им не избежать общей участи.
Сэмпл: http://multi-up.com/835699
Качество: WEBRip 720p
Формат: MKV
Видео кодек: H.264
Аудио кодек: AAC
Видео: MPEG4 Video (H264) 1280x720 29.97fps 1800kbps 0.065 bit/pixel
Аудио: AAC 44100Hz stereo 192kbps

MI

Общее
Полное имя : D:\МОИ РАЗДАЧИ\Сериалы HD\ЗОЛОТОЙ КАПКАН\Золотой капкан_hd720\Золотой_капкан_hd720_01.mkv
Формат : MPEG-4
Профиль формата : Base Media
Идентификатор кодека : isom
Размер файла : 695 Мбайт
Продолжительность : 48 м.
Общий поток : 1989 Кбит/сек
Программа кодирования : Lavf54.22.104
Видео
Идентификатор : 1
Формат : AVC
Формат/Информация : Advanced Video Codec
Профиль формата : [email protected]
Параметр CABAC формата : Да
Параметр ReFrames формата : 3 кадра
Идентификатор кодека : avc1
Идентификатор кодека/Информация : Advanced Video Coding
Продолжительность : 48 м.
Битрейт : 1800 Кбит/сек
Ширина : 1280 пикселей
Высота : 720 пикселей
Соотношение сторон : 16:9
Режим частоты кадров : Переменный
Частота кадров : 29,970 кадров/сек
Минимальная частота кадров : 29,382 кадров/сек
Максимальная частота кадров : 30,582 кадров/сек
Цветовое пространство : YUV
Субдискретизация насыщенности : 4:2:0
Битовая глубина : 8 бит
Тип развёртки : Прогрессивная
Бит/(Пиксели*Кадры) : 0.065
Размер потока : 626 Мбайт (90%)
Библиотека кодирования : x264 core 120
Настройки программы : cabac=1 / ref=3 / deblock=1:0:0 / analyse=0x3:0x133 / me=umh / subme=7 / psy=1 / psy_rd=1.00:0.00 / mixed_ref=1 / me_range=32 / chroma_me=1 / trellis=2 / 8x8dct=1 / cqm=0 / deadzone=21,11 / fast_pskip=1 / chroma_qp_offset=-2 / threads=12 / sliced_threads=0 / nr=0 / decimate=1 / interlaced=0 / bluray_compat=0 / constrained_intra=0 / bframes=0 / weightp=0 / keyint=119 / keyint_min=59 / scenecut=40 / intra_refresh=0 / rc_lookahead=50 / rc=2pass / mbtree=0 / bitrate=1800 / ratetol=1.0 / qcomp=0.20 / qpmin=10 / qpmax=51 / qpstep=4 / cplxblur=20.0 / qblur=0.5 / vbv_maxrate=2000 / vbv_bufsize=2000 / nal_hrd=none / ip_ratio=1.40 / aq=1:1.00
Основные цвета : BT.709
Характеристики трансфера : BT.709
Коэффициенты матрицы : BT.709
Аудио
Идентификатор : 2
Формат : AAC
Формат/Информация : Advanced Audio Codec
Профиль формата : LC
Идентификатор кодека : 40
Продолжительность : 48 м.
Вид битрейта : Постоянный
Битрейт : 188 Кбит/сек
Каналы : 2 канала
Расположение каналов : Front: L R
Частота : 44,1 КГц
Метод сжатия : С потерями
Размер потока : 65,7 Мбайт (9%)

Скриншоты










Other forum [Profile] [PM]
Similar theme
Forum Topic Author Torrent Replies Last Post
./templates/default/images/folder_dl.gif Документальные фильмы и телепередачи Золото Колчака (Елена Чавчавадзе) [2020 г., Документальный, SATRip] Борисыч
0 | 1

0 | 1975

0

2020-02-11 11:08
Борисыч Latest
Display posts from previous:    
Reply to topic

The time now is: Today 00:09

All times are GMT + 3 Hours



You cannot post new topics in this forum
You cannot reply to topics in this forum
You cannot edit your posts in this forum
You cannot delete your posts in this forum
You cannot vote in polls in this forum
You cannot attach files in this forum
You cannot download files in this forum