Today is a free download without charge Download

Марьина роща / Серии: 1-16 из 16 (Александр Хван) [2012, Россия, драма, детектив, история, 2xDVD9] R5 Original Rus

Reply to topic
 
Author
Message

Omen ®

Longevity: 9 years 1 month

Posts: 181086

Торрент-статистика

Post 25-Feb-2013 21:56

[Quote]

-Марьина роща -Страна: Россия
Студия: Мостелефильм
Жанр: драма, детектив, история
Год выпуска: 2012
Российская премьера: 14 января 2013
Дата выхода DVD: 21 февраля 2013, «Русское счастье»
Продолжительность: 720 мин.
Перевод: Оригинал [Лицензия]
Cубтитры: нет
Оригинальная аудиодорожка: русский-Режиссер: Александр Хван-В ролях: Александр Домогаров, Евгения Крюкова, Виталий Кудрявцев, Сергей Комаров, Савва Гусев, Елена Доронина, Яна Львова, Наталья Литвинова, Виктор Тереля, Артем Лысков-Описание: Оперативник МУРа Константин Трошин возвращается с фронта после победы в Великой Отечественной войне и узнает, что в милиции больше не работает. Причина — конфликт с влиятельным генералом НКГБ СССР. Но без милиции Трошин не представляет свою жизнь. Ему удается устроиться участковым в самом неблагополучном районе Москвы — Марьиной Роще. В силу личных проблем, Трошин вынужден поселиться в коммуналке, здесь же, в Марьиной Роще. Находясь в эпицентре криминальной среды и тесно сойдясь с ее обитателями, Трошин распутывает хладнокровные убийства, дерзкие налеты и хитроумные аферы. Но не преступники цель Трошина. Он ставит перед собой задачу — искоренить само преступление. Находясь на позиции участкового, он постепенно становится третейским судьей, которому люди доверяют отделять добро от зла.-Бонусы: нет- -Релиз группы: --Качество: 2хDVD9 R5
Формат: DVD-Video
Видео кодек: MPEG2
Аудио кодек: AC3
Видео: PAL 16:9 (720x576(5.819)) MPEG Video, 25,000 кадр/сек, 8100 Кбит/сек
Аудио: Russian (Dolby AC3, 2 ch) 96 Кбит/сек, 48,0 КГц--

DVDInfo DVD1

Title: DVD1
Size: 7.43 Gb ( 7 793 984,00 KBytes ) - DVD-9
Enabled regions: 1, 2, 3, 4, 5, 6, 7, 8
VTS_01 :
Play Length: 00:44:45+00:44:26+00:44:16+00:44:36+00:44:06+00:44:41+00:44:53+00:44:48
Video: PAL 16:9 (720x576) VBR, Auto Letterboxed
Audio:
English (Dolby AC3, 2 ch)
* Menus Information *
VIDEO_TS Menu
Video:
PAL 16:9 (720x576) VBR
Auto Letterboxed
Audio:
Not specified (Dolby AC3, 2 ch)
English Language Unit :
Title Menu
VTS_01 Menu
Video:
PAL 16:9 (720x576) VBR
Auto Letterboxed
Audio:
Not specified (Dolby AC3, 2 ch)
English Language Unit :
Root Menu

DVDInfo DVD2

Title: DVD2
Size: 6.40 Gb ( 6 715 310,00 KBytes ) - DVD-9
Enabled regions: 1, 2, 3, 4, 5, 6, 7, 8
VTS_01 :
Play Length: 00:44:28+00:44:34+00:44:15+00:44:29+00:44:31+00:44:10+00:44:26+00:44:43
Video: PAL 16:9 (720x576) VBR, Auto Letterboxed
Audio:
English (Dolby AC3, 2 ch)
* Menus Information *
VIDEO_TS Menu
Video:
PAL 16:9 (720x576) VBR
Auto Letterboxed
Audio:
Not specified (Dolby AC3, 2 ch)
English Language Unit :
Title Menu
VTS_01 Menu
Video:
PAL 16:9 (720x576) VBR
Auto Letterboxed
Audio:
Not specified (Dolby AC3, 2 ch)
English Language Unit :
Root Menu

MediaInfo

Общее
Полное имя : J:\Новинки 2013\Maryina.roshha.2012.O.2xDVD9\DVD1\VIDEO_TS\VTS_01_1.VOB
Формат : MPEG-PS
Размер файла : 1000 Мбайт
Продолжительность : 2 м. 16 с.
Режим общего битрейта : Переменный
Общий поток : 61,7 Мбит/сек
Библиотека кодирования : |HCenc 0.24.0.0 - (c) 2004/2010|
Видео
Идентификатор : 224 (0xE0)
Формат : MPEG Video
Версия формата : Version 2
Профиль формата : [email protected]
Параметр BVOP формата : Да
Параметр матрицы формата : Выборочная
Параметр GOP формата : Variable
Продолжительность : 2 м. 16 с.
Вид битрейта : Переменный
Битрейт : 60,3 Мбит/сек
Максимальный битрейт : 8100 Кбит/сек
Ширина : 720 пикселей
Высота : 576 пикселей
Соотношение сторон : 16:9
Частота кадров : 25,000 кадров/сек
Стандарт вещания : PAL
Цветовое пространство : YUV
Субдискретизация насыщенности : 4:2:0
Битовая глубина : 8 бит
Тип развёртки : Прогрессивная
Метод сжатия : С потерями
Бит/(Пиксели*Кадры) : 5.819
Размер потока : 978 Мбайт (98%)
Выравнивание : |HCenc 0.24.0.0 - (c) 2004/2010|
Заголовок : |HCenc 0.24.0.0 - (c) 2004/2010|
Библиотека кодирования : |HCenc 0.24.0.0 - (c) 2004/2010|
Аудио
Идентификатор : 189 (0xBD)-128 (0x80)
Формат : AC-3
Формат/Информация : Audio Coding 3
Расширение режима : CM (complete main)
Параметр Endianness формата : Big
Режим смешивания : DVD-Video
Продолжительность : 2 м. 16 с.
Вид битрейта : Постоянный
Битрейт : 96,0 Кбит/сек
Каналы : 2 канала
Расположение каналов : Front: L R
Частота : 48,0 КГц
Битовая глубина : 16 бит
Метод сжатия : С потерями
Размер потока : 1,56 Мбайт (0%)

Скриншоты меню

Скриншоты сериала

-
Other forum [Profile] [PM]
Display posts from previous:    
Reply to topic

The time now is: Today 05:42

All times are GMT + 3 Hours



You cannot post new topics in this forum
You cannot reply to topics in this forum
You cannot edit your posts in this forum
You cannot delete your posts in this forum
You cannot vote in polls in this forum
You cannot attach files in this forum
You cannot download files in this forum