Today is a free download without charge Download

Поймай меня, если сможешь / Catch Me If You Can (Стивен Спилберг / Steven Spielberg) [2002, США, Канада, драма, комедия, криминал, биография, BDRip 720p] Dub + MVO + AVO (Живов) + AVO (Гаврилов) + Original Eng + Sub Rus Eng

Reply to topic
 
Author
Message

Omen ®

Longevity: 8 years 5 months

Posts: 181087

Торрент-статистика

Post 25-Feb-2013 21:56

[Quote]

Поймай меня, если сможешь / Catch Me If You Can
«Правдивая история о реальном преступнике»
- Страна: США, Канада
Студия: Amblin Entertainment, DreamWorks SKG
Жанр: драма, комедия, криминал, биография
Год выпуска: 2002
Продолжительность: 02:20:43-Перевод:
1. Профессиональный (дублированный)
2. Профессиональный (многоголосый закадровый)
3. Авторский (одноголосый закадровый) :: Ю. Живов
4. Авторский (одноголосый закадровый) :: А. Гаврилов
Оригинальная аудиодорожка: английский
Cубтитры: русские, английские(2)
Навигация по главам: есть-Режиссер: Стивен Спилберг / Steven Spielberg
В ролях: Леонардо ДиКаприо, Том Хэнкс, Кристофер Уокен, Мартин Шин, Натали Бэй, Эми Адамс, Джеймс Бролин, Брайан Хау, Фрэнк Джон Хьюз, Стив Истин
Описание: Фрэнк Эбегнейл успел поработать врачом, адвокатом и пилотом на пассажирской авиалинии — и все это до достижения полного совершеннолетия в 21 год. Мастер в обмане и жульничестве, он также обладал искусством подделки документов, что в конечном счете принесло ему миллионы долларов, которые он получил по фальшивым чекам.
Агент ФБР Карл Хэнрэтти отдал бы все, чтобы схватить Фрэнка и привлечь к ответственности за свои деяния, но Фрэнк всегда опережает его на шаг, заставляя продолжать погоню.-Доп. информация:
Возрастные ограничения: 12+
Рейтинг MPAA: PG-13 (детям до 13 лет просмотр не желателен)-IMDB: 7.9 (261 487) // Kinopoisk: 8.549 (122 413) // Sample-Исходник: Blu-Ray
Тип релиза: BDRip 720p
Контейнер: MKV
Видео: 1280x692 (1.85:1), 23.976 fps, ~9009 kbps, 0.424 bpp
Аудио 1: RUS DTS 5.1, 48 kHz, 768 kbps, 24 bits :: Дублированный
Аудио 2: RUS DTS 5.1, 48 kHz, 1509 kbps, 24 bits :: Многоголосый
Аудио 3: RUS DTS 5.1, 48 kHz, 1509 kbps, 24 bits :: Одноголосый (Живов)
Аудио 4: RUS AC3 2.0, 48 kHz, 192 kbps :: Одноголосый (Гаврилов)
Аудио 5: ENG DTS 5.1, 48 kHz, 1509 kbps, 24 bits
Субтитры 1: русские
Субтитры 2-3: английские(полные, полные для слабослышащих)
Формат субтитров: softsub (SRT)

x264

x264 [info]: 1280x692p 1:1 @ 24000/1001 fps (cfr)
x264 [info]: using SAR=1/1
x264 [info]: using cpu capabilities: MMX2 SSE2Fast SSSE3 FastShuffle SSE4.2 AVX
x264 [info]: profile High, level 4.1
x264 [info]: cabac=1 ref=8 deblock=1:-3:-2 analyse=0x3:0x113 me=umh subme=10 psy=1 fade_compensate=0.00 psy_rd=1.00:0.10 mixed_ref=1 me_range=32 chroma_me=1 trellis=2 8x8dct=1 cqm=0 deadzone=21,11 fast_pskip=0 chroma_qp_offset=-3 threads=6 lookahead_threads=1 sliced_threads=0 nr=0 decimate=0 interlaced=0 bluray_compat=0 constrained_intra=0 bframes=11 b_pyramid=2 b_adapt=2 b_bias=0 direct=3 weightb=1 open_gop=0 weightp=2 keyint=250 keyint_min=23 scenecut=40 intra_refresh=0 rc_lookahead=60 rc=2pass mbtree=1 bitrate=9009 ratetol=1.0 qcomp=0.70 qpmin=0 qpmax=69 qpstep=4 cplxblur=20.0 qblur=0.5 vbv_maxrate=50000 vbv_bufsize=62500 nal_hrd=none ip_ratio=1.20 aq=1:1.00
x264 [info]: frame I:1190 Avg QP:15.54 size:125093
x264 [info]: frame P:39055 Avg QP:17.39 size: 73305
x264 [info]: frame B:162186 Avg QP:18.78 size: 40056
x264 [info]: consecutive B-frames: 1.2% 1.4% 3.6% 14.6% 13.7% 54.0% 5.6% 1.4% 1.5% 1.2% 1.0% 0.7%
x264 [info]: mb I I16..4: 7.5% 77.0% 15.4%
x264 [info]: mb P I16..4: 1.2% 22.9% 2.2% P16..4: 29.2% 26.3% 13.2% 0.0% 0.0% skip: 4.9%
x264 [info]: mb B I16..4: 0.1% 6.6% 0.4% B16..8: 36.8% 17.5% 5.3% direct:11.9% skip:21.4% L0:46.9% L1:37.0% BI:16.0%
x264 [info]: 8x8 transform intra:89.3% inter:58.9%
x264 [info]: direct mvs spatial:99.0% temporal:1.0%
x264 [info]: coded y,uvDC,uvAC intra: 93.6% 93.0% 83.0% inter: 46.5% 44.6% 26.3%
x264 [info]: i16 v,h,dc,p: 31% 11% 18% 40%
x264 [info]: i8 v,h,dc,ddl,ddr,vr,hd,vl,hu: 11% 8% 15% 9% 12% 12% 11% 11% 12%
x264 [info]: i4 v,h,dc,ddl,ddr,vr,hd,vl,hu: 37% 6% 6% 7% 10% 10% 9% 8% 8%
x264 [info]: i8c dc,h,v,p: 58% 15% 13% 15%
x264 [info]: Weighted P-Frames: Y:2.5% UV:0.8%
x264 [info]: ref P L0: 41.8% 6.2% 19.0% 10.5% 8.1% 6.2% 5.1% 3.0% 0.2% 0.0%
x264 [info]: ref B L0: 64.4% 16.1% 8.4% 5.0% 3.6% 1.8% 0.6%
x264 [info]: ref B L1: 91.1% 8.9%
x264 [info]: kb/s:9009.37

MediaInfo

General
Unique ID : 246984893268325642014772651330895558486 (0xB9CF8F67AC4DC41A845BE5B7AAFB3756)
Complete name : E:\Catch.Me.If.You.Can.2002.BDRip.720p.AC3.DTS.mkv
Format : Matroska
Format version : Version 4 / Version 2
File size : 14.3 GiB
Duration : 2h 20mn
Overall bit rate : 14.5 Mbps
Movie name : Catch Me If You Can (2002)
Encoded date : UTC 2013-02-24 09:39:50
Writing application : mkvmerge v6.0.0 ('Coming Up For Air') built on Jan 20 2013 09:52:00
Writing library : libebml v1.3.0 + libmatroska v1.4.0
Video
ID : 1
Format : AVC
Format/Info : Advanced Video Codec
Format profile : [email protected]
Format settings, CABAC : Yes
Format settings, ReFrames : 8 frames
Codec ID : V_MPEG4/ISO/AVC
Duration : 2h 20mn
Bit rate : 9 009 Kbps
Width : 1 280 pixels
Height : 692 pixels
Display aspect ratio : 1.85:1
Frame rate mode : Constant
Frame rate : 23.976 fps
Color space : YUV
Chroma subsampling : 4:2:0
Bit depth : 8 bits
Scan type : Progressive
Bits/(Pixel*Frame) : 0.424
Stream size : 8.58 GiB (60%)
Title : Catch Me If You Can (2002)
Writing library : x264 core 129 r2245kMod bc13772
Encoding settings : cabac=1 / ref=8 / deblock=1:-3:-2 / analyse=0x3:0x113 / me=umh / subme=10 / psy=1 / fade_compensate=0.00 / psy_rd=1.00:0.10 / mixed_ref=1 / me_range=32 / chroma_me=1 / trellis=2 / 8x8dct=1 / cqm=0 / deadzone=21,11 / fast_pskip=0 / chroma_qp_offset=-3 / threads=6 / lookahead_threads=1 / sliced_threads=0 / nr=0 / decimate=0 / interlaced=0 / bluray_compat=0 / constrained_intra=0 / bframes=11 / b_pyramid=2 / b_adapt=2 / b_bias=0 / direct=3 / weightb=1 / open_gop=0 / weightp=2 / keyint=250 / keyint_min=23 / scenecut=40 / intra_refresh=0 / rc_lookahead=60 / rc=2pass / mbtree=1 / bitrate=9009 / ratetol=1.0 / qcomp=0.70 / qpmin=0 / qpmax=69 / qpstep=4 / cplxblur=20.0 / qblur=0.5 / vbv_maxrate=50000 / vbv_bufsize=62500 / nal_hrd=none / ip_ratio=1.20 / aq=1:1.00
Language : English
Default : Yes
Forced : No
Matrix coefficients : BT.709
Audio #1
ID : 2
Format : DTS
Format/Info : Digital Theater Systems
Mode : 16
Format settings, Endianness : Big
Codec ID : A_DTS
Duration : 2h 20mn
Bit rate mode : Constant
Bit rate : 768 Kbps
Channel(s) : 6 channels
Channel positions : Front: L C R, Side: L R, LFE
Sampling rate : 48.0 KHz
Bit depth : 24 bits
Compression mode : Lossy
Stream size : 773 MiB (5%)
Title : Dub / DTS 5.1, 48kHz, 768kbps, 24bits
Language : Russian
Default : Yes
Forced : No
Audio #2
ID : 3
Format : DTS
Format/Info : Digital Theater Systems
Mode : 16
Format settings, Endianness : Big
Codec ID : A_DTS
Duration : 2h 20mn
Bit rate mode : Constant
Bit rate : 1 509 Kbps
Channel(s) : 6 channels
Channel positions : Front: L C R, Side: L R, LFE
Sampling rate : 48.0 KHz
Bit depth : 24 bits
Compression mode : Lossy
Stream size : 1.48 GiB (10%)
Title : MVO / DTS 5.1, 48kHz, 1509kbps, 24bits
Language : Russian
Default : No
Forced : No
Audio #3
ID : 4
Format : DTS
Format/Info : Digital Theater Systems
Mode : 16
Format settings, Endianness : Big
Codec ID : A_DTS
Duration : 2h 20mn
Bit rate mode : Constant
Bit rate : 1 509 Kbps
Channel(s) : 6 channels
Channel positions : Front: L C R, Side: L R, LFE
Sampling rate : 48.0 KHz
Bit depth : 24 bits
Compression mode : Lossy
Stream size : 1.48 GiB (10%)
Title : AVO (Zhivov) / DTS 5.1, 48kHz, 1509kbps, 24bits
Language : Russian
Default : No
Forced : No
Audio #4
ID : 5
Format : AC-3
Format/Info : Audio Coding 3
Format profile : Dolby Digital
Mode extension : CM (complete main)
Format settings, Endianness : Big
Codec ID : A_AC3
Duration : 2h 20mn
Bit rate mode : Constant
Bit rate : 192 Kbps
Channel(s) : 2 channels
Channel positions : Front: L R
Sampling rate : 48.0 KHz
Bit depth : 16 bits
Compression mode : Lossy
Stream size : 193 MiB (1%)
Title : AVO (Gavrilov) / DD 2.0, 48kHz, 192kbps
Language : Russian
Default : No
Forced : No
Audio #5
ID : 6
Format : DTS
Format/Info : Digital Theater Systems
Mode : 16
Format settings, Endianness : Big
Codec ID : A_DTS
Duration : 2h 20mn
Bit rate mode : Constant
Bit rate : 1 509 Kbps
Channel(s) : 6 channels
Channel positions : Front: L C R, Side: L R, LFE
Sampling rate : 48.0 KHz
Bit depth : 24 bits
Compression mode : Lossy
Stream size : 1.48 GiB (10%)
Title : Original / DTS 5.1, 48kHz, 1509kbps, 24bits
Language : English
Default : No
Forced : No
Text #1
ID : 7
Format : UTF-8
Codec ID : S_TEXT/UTF8
Codec ID/Info : UTF-8 Plain Text
Title : Full
Language : Russian
Default : No
Forced : No
Text #2
ID : 8
Format : UTF-8
Codec ID : S_TEXT/UTF8
Codec ID/Info : UTF-8 Plain Text
Title : Full
Language : English
Default : No
Forced : No
Text #3
ID : 9
Format : UTF-8
Codec ID : S_TEXT/UTF8
Codec ID/Info : UTF-8 Plain Text
Title : Full (SDH)
Language : English
Default : No
Forced : No
Menu
00:00:00.000 : en:01. My Name Is Frank Abagnale, Jr.
00:04:43.909 : en:02. Carl Hanratty
00:10:59.450 : en:03. Lifestyle Changes
00:18:35.281 : en:04. The Substitute
00:25:56.430 : en:05. Running Away
00:28:58.737 : en:06. Becoming a Pilot
00:33:59.663 : en:07. Getting It All Back
00:38:37.065 : en:08. Dead Head
00:42:09.944 : en:09. Check Cashing
00:49:06.068 : en:10. Barry Allen, Secret Service
00:56:54.870 : en:11. The James Bond of the Sky
01:03:42.527 : en:12. He's A Kid
01:10:05.952 : en:13. Dr. Frank Conners
01:22:26.733 : en:14. Becoming a Lawyer
01:32:10.400 : en:15. Calling a Truce
01:38:26.067 : en:16. What's In a Name
01:43:32.581 : en:17. New Recruiting Program
01:49:50.417 : en:18. Out of Control
01:58:00.907 : en:19. Family News
02:04:01.476 : en:20. Financial Crime Unit
02:12:33.279 : en:21. Late for Work
02:16:00.194 : en:22. End Credits

Скриншоты


Сравнения

Source
BDRip
BDRip[Froloff777]
Other forum [Profile] [PM]
Display posts from previous:    
Reply to topic

The time now is: Today 02:38

All times are GMT + 3 Hours



You cannot post new topics in this forum
You cannot reply to topics in this forum
You cannot edit your posts in this forum
You cannot delete your posts in this forum
You cannot vote in polls in this forum
You cannot attach files in this forum
You cannot download files in this forum