Today is a free download without charge Download

Унивеp. Нoвaя oбщaгa / Сезоны: 1-4 / Серии: 1-61 из ? (Koнстантин Смиpнoв) [2011-2013, Ситком, комедия, SATRip]

Reply to topic
 
Author
Message

Omen ®

Longevity: 9 years 1 month

Posts: 181086

Торрент-статистика

Post 25-Feb-2013 13:48

[Quote]

Унивеp. Нoвaя oбщaгa Год выпуска:
2011-2013
Производство:
"Comedy Production"
Жанр:
Ситком, комедия
Режиссёр:
Koнстантин Смиpнoв
В ролях:
Виталий Гогунский, Арарат Кещян, Станислав Ярушин, Анна Кузина, Настасья Самбурская, Анна Хилькевич, Владимир Фекленко, Елена Валюшкина, Андрей Лебедев, Сергей Пиоро, Роман Куперман, Дмитрий Калистратов, Алексей Шаранин, Дарья Щёголева, Наталья Рудова, Иван Руденко, Анатолий Носов, Дмитрий Кузин, Мария Беляева, Александра Булычёва, Галина Глушкова
Описание:
Оставленным на второй год пятикурсникам Антону и Кузе привалило счастье. Их старая общага идет под снос, и в новом корпусе их селят в блок с тремя девушками – Кристиной, Машей и Яной. В роли аспиранта в универ возвращается и Майкл – чтобы откосить от армии. Ребята стали старше и… романтичнее. Теперь им хочется не только секса и тусовок, но и настоящих чувств. Однако вызвать взаимность у дам сердца не так просто, как кажется. Майкл, Антон и Кузя переезжают в новую общагу. Там их уже ждут Кристина, Яна и Маша. Кто объявит себя парой?
Продолжительность:
61 х 00:23:00
Доп. информация: Данная раздача не будет искаться в поиске! Либо отслеживайте обновления в разделе "Русские сериалы", либо в моей подписи есть картинка, с сылкой на эту раздачу. Приятного просмотра! + с 11 марта ждём новые серии "Универ. Новая общага" в этой раздаче!
Качество: SatRip
Формат: AVI
Видео кодек: XviD
Аудио кодек: AC3
Видео: 688x400 (1.72:1), 25 fps, XviD build 64 ~1490 kbps avg, 0.22 bit/pixel
Аудио: 48 kHz, MPEG Layer 3, 2 ch, ~128.00 kbps avg

DVD Cover

MI

Общее
Полное имя : D:\Торренты\Novaya_Obshaga_SatRip_by_Drek\Novaya_Obshaga_56_Seriya_SatRip_by_Drek.avi
Формат : AVI
Формат/Информация : Audio Video Interleave
Размер файла : 279 Мбайт
Продолжительность : 23 м.
Общий поток : 1629 Кбит/сек
Программа кодирования : VirtualDubMod 1.5.10.3 | www.virtualdub-fr.org || (build 2550/release)
Библиотека кодирования : VirtualDubMod build 2550/release
Видео
Идентификатор : 0
Формат : MPEG-4 Visual
Профиль формата : Advanced [email protected]
Параметр BVOP формата : 2
Параметр QPel формата : Нет
Параметр GMC формата : Без точки перехода
Параметр матрицы формата : Default (H.263)
Идентификатор кодека : XVID
Идентификатор кодека/Подсказка : XviD
Продолжительность : 23 м.
Битрейт : 1491 Кбит/сек
Ширина : 688 пикселей
Высота : 400 пикселей
Соотношение сторон : 16:9
Частота кадров : 25,000 кадров/сек
Цветовое пространство : YUV
Субдискретизация насыщенности : 4:2:0
Битовая глубина : 8 бит
Тип развёртки : Прогрессивная
Метод сжатия : С потерями
Бит/(Пиксели*Кадры) : 0.217
Размер потока : 256 Мбайт (92%)
Библиотека кодирования : XviD 64
Аудио
Идентификатор : 1
Формат : MPEG Audio
Версия формата : Version 1
Профиль формата : Layer 3
Режим : Joint stereo
Расширение режима : MS Stereo
Идентификатор кодека : 55
Идентификатор кодека/Подсказка : MP3
Продолжительность : 23 м.
Вид битрейта : Постоянный
Битрейт : 128 Кбит/сек
Каналы : 2 канала
Частота : 48,0 КГц
Метод сжатия : С потерями
Размер потока : 21,9 Мбайт (8%)
Выравнивание : Соединение по промежуткам
Продолжительность промежутка : 40 мс. (1,00 видеокадр)
Время предзагрузки промежутка : 504 мс.
Библиотека кодирования : LAME3.99
Настройки программы : -m j -V 4 -q 2 -lowpass 17 -b 128
Other forum [Profile] [PM]
Display posts from previous:    
Reply to topic

The time now is: Today 05:58

All times are GMT + 3 Hours



You cannot post new topics in this forum
You cannot reply to topics in this forum
You cannot edit your posts in this forum
You cannot delete your posts in this forum
You cannot vote in polls in this forum
You cannot attach files in this forum
You cannot download files in this forum