Today is a free download without charge Download

Хороший, плохой, долбанутый / The Good, the Bad, the Weird / Joheunnom nabbeunnom isanghannom (Джи-Вун Ким / Ji-woon Kim) [2008, Южная Корея, боевик, комедия, приключения, вестерн, BDRip 1080p] [Korean Version] MVO + AVO + Original + Subs (Rus, Eng)

Reply to topic
 
Author
Message

Omen ®

Longevity: 8 years 5 months

Posts: 181087

Торрент-статистика

Post 25-Feb-2013 13:48

[Quote]

--Хороший, плохой, долбанутый / The Good, the Bad, the Weird / Joheunnom nabbeunnom isanghannom- -Год выпуска: 2008
Страна: Южная Корея
Жанр: боевик, комедия, приключения, вестерн
Продолжительность: 02:15:18
Перевод №1: Профессиональный (многоголосый закадровый, Cinema Prestige)
Перевод №2: Авторский (одноголосый закадровый, Ю.Сербин)
Субтитры: Русские, Английские-Режиссер: Ким Чжи-ун / Kim Ji-woon
Сценарий: Ким Чжи-ун / Kim Ji-woon, Ким Мин-сук / Kim Min-suk
Продюсер: Джэ-вон Чои / Jae-Won Choi, Джун Х. Чои / Joon H. Choi, Ким Чжу-Сун / Kim Joo-Sung, Чон-хва Ким / Jung-hwa Kim и др.
Оператор: Мо-Гэ Ли / Mo-gae Lee, Сын-Чхоль О / Seung-Chul Oh
Композитор: Далпаран / Dalparan, Ён-гю Янг / Yeong-gyu Jang
В ролях: Сон Кан-хо / Song Kang-ho (Yoon Tae-goo / The Weird), Ли Бён Хон / Lee Byeong-Heon (Park Chang-yi / The Bad), Чон У Сон / Jung Woo-sung (Park Do-won / The Good), Юн Чже Мун / Yoon Jae-Moon (Byung-choon), Рю Сын Су / Ryu Seung Su (Man-gil), Ён-чан Сон / Young-chang Song (Kim Pan-joo), Сон Бён Хо / Son Byung Ho (Seo Jae-sik), Ох Дал Су / Oh Dal Su (Messenger for Kim Pan-joo), Ли Чжон А / Lee Cheong-a (Song-yi), Ким Кван-иль / Kim Kwang-il (Two Blades), Ма Дон Сок / Ma Dong Seok (Bear), Чо Кён Хун / Jo Kyeong-hun (Doo-chao)-Описание: Тридцатые годы XX века. Мир находится в хаосе. В северо-восточной Азии корейский полуостров захвачен японскими империалистами. Множество корейцев, спасаясь от оккупантов, стекается в Маньчжурию, обширные земли лошадей и степей, граничащую с их родиной и Китаем. Некоторые из них неминуемо становяться бандитами, чтобы раздобыть себе пропитание на этой бесплодной пустоши.
Тхэ Гу - вор. Однажды он грабит военный японский поезд, но все не так банально, как может показаться на первый взгляд. В самый разгар этой ожесточенной перестрелки с японцами к нему попадает таинственная карта, которая ведет к сокровищам династии Цин, спрятанным где-то в Маньчжурии.
Вдобавок к этому, карту также пытается заполучить хладнокровный убийца, Чан И. Тхэ Гу должен сражаться не только с японцами, но и с ним и его головорезами, которые атаковали поезд в тоже время, что и он. В конце напряженной перестрелки буквально из ниоткуда появляется таинственный человек и спасает Тхэ Гу.
-
Доп. информация: Исходник Хороший, плохой, долбанутый / The Good, the Bad, the Weird / Joheunnom nabbeunnom isanghannom (Джи-Вун Ким / Ji-woon Kim) [2008, Южная Корея, боевик, комедия, приключения, вестерн, Blu-ray (custom) 1080p] Корейская и Международная версии VO Ю. Сербин-Качество: Blu-ray Rip 1080p
Формат: MKV
Видео: MPEG-4 AVC (H264), High Profile 4.1, 1916x816, 23.976 fps, ~16500 kbps avg, bit/(pixel*frame) 0.440
Аудио №1: Russian: 48 kHz, AC3, 3/2 (L,C,R,l,r) + LFE ch, ~448.00 kbps avg //многоголосый закадровый (Cinema Prestige)
Аудио №2: Russian: 48 kHz, DTS-ES, 3/3 (L,C,R,l,с,r) + LFE ch, ~1510.00 kbps avg //одноголосый закадровый (Ю.Сербин)
Аудио №3: Korean: 48 kHz, DTS-ES, 3/3 (L,C,R,l,c,r) + LFE ch, ~1510.00 kbps avg //original
Аудио №4: Korean: 48 kHz, AC3, 2.0 (L,R), ~192.00 kbps avg //original (commentary)
Субтитры: Russian, English (Softsub SRT)
Навигация по главам: есть-

MediaInfo

L:\movie HD VII\The Good, the Bad, the Weird [Хороший, плохой, долбанутый] (2008) 1916x816 BDRip RusKorSubsChpt.mkv
General
Unique ID : 238725028393670534281408027291115252584 (0xB398C49FF5EF511DB3028DD6761AEB68)
Complete name : L:\movie HD VII\The Good, the Bad, the Weird [Хороший, плохой, долбанутый] (2008) 1916x816 BDRip RusKorSubsChpt.mkv
Format : Matroska
Format version : Version 4 / Version 2
File size : 19.1 GiB
Duration : 2h 15mn
Overall bit rate : 20.2 Mbps
Movie name : -=RbM=-
Encoded date : UTC 2013-02-25 05:25:32
Writing application : mkvmerge v6.0.0 ('Coming Up For Air') built on Jan 20 2013 09:52:00
Writing library : libebml v1.3.0 + libmatroska v1.4.0
Video #1
ID : 1
Format : AVC
Format/Info : Advanced Video Codec
Format profile : [email protected]
Format settings, CABAC : Yes
Format settings, ReFrames : 5 frames
Codec ID : V_MPEG4/ISO/AVC
Duration : 2h 15mn
Bit rate : 16.5 Mbps
Width : 1 916 pixels
Height : 816 pixels
Display aspect ratio : 2.35:1
Frame rate mode : Constant
Frame rate : 23.976 fps
Color space : YUV
Chroma subsampling : 4:2:0
Bit depth : 8 bits
Scan type : Progressive
Bits/(Pixel*Frame) : 0.440
Stream size : 15.2 GiB (80%)
Title : 70% of the original
Writing library : x264 core 129 r2245+704+36 8e61944 tMod+MixAQ [[email protected] X86]
Encoding settings : cabac=1 / ref=5 / deblock=1:-3:-3 / analyse=0x3:0x133 / me=umh / subme=10 / psy=1 / fade_compensate=0.00 / psy_rd=1.00:0.00 / mixed_ref=1 / me_range=32 / chroma_me=1 / trellis=2 / 8x8dct=1 / cqm=0 / deadzone=21,11 / fast_pskip=0 / chroma_qp_offset=-2 / threads=12 / lookahead_threads=2 / sliced_threads=0 / nr=0 / decimate=0 / interlaced=0 / bluray_compat=0 / constrained_intra=0 / fgo=0 / bframes=11 / b_pyramid=2 / b_adapt=2 / b_bias=0 / direct=3 / weightb=1 / open_gop=0 / weightp=2 / keyint=250 / keyint_min=23 / scenecut=40 / intra_refresh=0 / rc=2pass / mbtree=0 / bitrate=16500 / ratetol=1.0 / qcomp=0.60 / qpmin=0 / qpmax=69 / qpstep=4 / cplxblur=20.0 / qblur=0.5 / ip_ratio=1.25 / pb_ratio=1.10 / aq=3 / aq-strength=0.60 / aq-sensitivity=10.00 / aq-ifactor=1.00 / aq-pfactor=1.00 / aq-bfactor=1.00 / aq2=0
Language : Korean
Default : Yes
Forced : No
Audio #2
ID : 2
Format : AC-3
Format/Info : Audio Coding 3
Mode extension : CM (complete main)
Format settings, Endianness : Big
Codec ID : A_AC3
Duration : 2h 15mn
Bit rate mode : Constant
Bit rate : 448 Kbps
Channel(s) : 6 channels
Channel positions : Front: L C R, Side: L R, LFE
Sampling rate : 48.0 KHz
Bit depth : 16 bits
Compression mode : Lossy
Stream size : 434 MiB (2%)
Title : MVO AC3 6ch 448kbps (Cinema Prestige)
Language : Russian
Default : Yes
Forced : No
Audio #3
ID : 3
Format : DTS
Format/Info : Digital Theater Systems
Format profile : ES
Mode : 16
Format settings, Endianness : Big
Codec ID : A_DTS
Duration : 2h 15mn
Bit rate mode : Constant
Bit rate : 1 509 Kbps
Channel(s) : 7 channels / 6 channels
Channel positions : Front: L C R, Side: L R, Back: C, LFE / Front: L C R, Side: L R, LFE
Sampling rate : 48.0 KHz
Bit depth : 16 bits
Compression mode : Lossy
Stream size : 1.43 GiB (7%)
Title : AVO DTS-ES 7ch 1510kbps (Ю.Сербин)
Language : Russian
Default : No
Forced : No
Audio #4
ID : 4
Format : DTS
Format/Info : Digital Theater Systems
Format profile : ES
Mode : 16
Format settings, Endianness : Big
Codec ID : A_DTS
Duration : 2h 15mn
Bit rate mode : Constant
Bit rate : 1 509 Kbps
Channel(s) : 7 channels / 6 channels
Channel positions : Front: L C R, Side: L R, Back: C, LFE / Front: L C R, Side: L R, LFE
Sampling rate : 48.0 KHz
Bit depth : 16 bits
Compression mode : Lossy
Stream size : 1.43 GiB (7%)
Title : Original DTS-ES 7ch 1510kbps
Language : Korean
Default : No
Forced : No
Audio #5
ID : 5
Format : AC-3
Format/Info : Audio Coding 3
Mode extension : CM (complete main)
Format settings, Endianness : Big
Codec ID : A_AC3
Duration : 2h 15mn
Bit rate mode : Constant
Bit rate : 192 Kbps
Channel(s) : 2 channels
Channel positions : Front: L R
Sampling rate : 48.0 KHz
Bit depth : 16 bits
Compression mode : Lossy
Stream size : 186 MiB (1%)
Title : Original AC3 2ch 192kbps (commentary)
Language : Korean
Default : No
Forced : No
Text #6
ID : 6
Format : UTF-8
Codec ID : S_TEXT/UTF8
Codec ID/Info : UTF-8 Plain Text
Language : Russian
Default : No
Forced : No
Text #7
ID : 7
Format : UTF-8
Codec ID : S_TEXT/UTF8
Codec ID/Info : UTF-8 Plain Text
Language : English
Default : No
Forced : No
Menu
00:00:00.000 : :0:00:00.000
00:04:37.777 : :0:04:37.777
00:09:59.432 : :0:09:59.432
00:20:43.992 : :0:20:43.992
00:26:30.714 : :0:26:30.714
00:33:43.229 : :0:33:43.229
00:41:15.472 : :0:41:15.472
00:49:08.820 : :0:49:08.820
00:50:48.044 : :0:50:48.044
00:56:27.509 : :0:56:27.509
01:07:29.044 : :1:07:29.044
01:17:10.625 : :1:17:10.625
01:28:26.092 : :1:28:26.092
01:33:41.615 : :1:33:41.615
01:45:57.601 : :1:45:57.601
01:52:21.234 : :1:52:21.234
01:59:21.612 : :1:59:21.612
02:05:38.530 : :2:05:38.530
02:08:49.721 : :2:08:49.721

x264 log

x264 [info]: frame I:1159 Avg QP:18.99 size:208528 PSNR Mean Y:44.78 U:48.66 V:49.24 Avg:45.76 Global:45.15
x264 [info]: frame P:49716 Avg QP:20.62 size:115743 PSNR Mean Y:43.25 U:48.12 V:48.70 Avg:44.36 Global:43.77
x264 [info]: frame B:143766 Avg QP:21.28 size: 74766 PSNR Mean Y:42.40 U:47.62 V:48.41 Avg:43.57 Global:42.87
x264 [info]: consecutive B-frames: 4.6% 6.2% 8.4% 30.7% 13.6% 14.9% 7.4% 10.8% 1.0% 0.9% 0.4% 1.1%
x264 [info]: mb I I16..4: 3.4% 87.6% 8.9%
x264 [info]: mb P I16..4: 1.4% 28.4% 1.9% P16..4: 33.2% 21.6% 11.6% 0.6% 0.1% skip: 1.3%
x264 [info]: mb B I16..4: 0.1% 3.7% 0.3% B16..8: 48.2% 17.3% 5.7% direct:13.8% skip:10.8% L0:42.6% L1:43.2% BI:14.2%
x264 [info]: 8x8 transform intra:89.9% inter:54.1%
x264 [info]: direct mvs spatial:97.6% temporal:2.4%
x264 [info]: coded y,uvDC,uvAC intra: 95.3% 85.5% 44.4% inter: 68.4% 53.1% 8.7%
x264 [info]: i16 v,h,dc,p: 46% 12% 8% 35%
x264 [info]: i8 v,h,dc,ddl,ddr,vr,hd,vl,hu: 6% 7% 7% 11% 15% 13% 15% 11% 13%
x264 [info]: i4 v,h,dc,ddl,ddr,vr,hd,vl,hu: 6% 7% 2% 9% 18% 15% 17% 11% 15%
x264 [info]: i8c dc,h,v,p: 35% 26% 18% 21%
x264 [info]: Weighted P-Frames: Y:98.4% UV:12.4%
x264 [info]: ref P L0: 46.3% 12.5% 21.8% 9.3% 8.0% 1.9% 0.2%
x264 [info]: ref B L0: 80.4% 13.9% 4.4% 1.3%
x264 [info]: ref B L1: 93.6% 6.4%
x264 [info]: SSIM Mean Y:0.9602814 (14.010db)
x264 [info]: PSNR Mean Y:42.628 U:47.757 V:48.487 Avg:43.782 Global:43.097 kb/s:16501.02
x264 [info]: encoded 194641 frames, 4.035 fps, 16501.02 kb/s, 15969 MB
x264 [info]: ended at Thu Feb 21 22:42:03 2013
x264 [info]: encoding duration 13:23:59
Other forum [Profile] [PM]
Similar theme
Forum Topic Author Torrent Replies Last Post
./templates/default/images/folder_dl.gif Фильмы Кому всунешь, ту и чпокнешь (Сергей Логинов / Кинокомпания «Клубничка») [2010 г., Feature, Anal Sex, Russian Girls, DVDRip] (Оля Захарова, Таня Легенда, Злата Козак, Тася Кошечкина, Лида Хорошева, Злата Пинки, Лена Нимфа, Гуля Мамедова, Е. Скворцова) Anonymous
0 | 1

0 | 10307

120

2017-04-01 20:24
Anonymous Latest
Display posts from previous:    
Reply to topic

The time now is: Today 11:02

All times are GMT + 3 Hours



You cannot post new topics in this forum
You cannot reply to topics in this forum
You cannot edit your posts in this forum
You cannot delete your posts in this forum
You cannot vote in polls in this forum
You cannot attach files in this forum
You cannot download files in this forum