Today is a free download without charge Download

Maroon 5 (Live @ The Grammy Nominations Concert) December 5, 2012 [Pop, soft rock, reggae, funk rock, HDTV 1080i]

Reply to topic
 
Author
Message

Omen ®

Longevity: 8 years 4 months

Posts: 181087

Торрент-статистика

Post 25-Feb-2013 13:48

[Quote]

Maroon 5 (Live @ The Grammy Nominations Concert) December 5, 2012
Жанр: Pop, soft rock, reggae, funk rock
Продолжительность: 09:12
Год выпуска: 2012
Треклист:
01 - One More Night
02 - Move Like Jagger
03 - Daylight
04 - Payphone
Качество: HDTV 1080i
Контейнер: TS
Видео: MPEG2 1920x1080 16:9 15.3 Mbps 29.970 fps
Аудио: AC3 384 kbps 2 channels 48.0 KHz

Отчёт MediaInfo

GeneralID : 1 (0x1)Complete name : D:\Maroon 5 - Live The Grammy Nominations Concert.tsFormat : MPEG-TSFile size : 1.06 GiBDuration : 9mn 12sOverall bit rate : 16.5 Mbps
VideoID : 2048 (0x800)Menu ID : 1 (0x1)Format : MPEG VideoFormat version : Version 2Format profile : [email protected] settings, BVOP : YesFormat settings, Matrix : DefaultCodec ID : 2Duration : 9mn 12sBit rate mode : VariableBit rate : 15.3 MbpsNominal bit rate : 80.0 MbpsWidth : 1 920 pixelsHeight : 1 080 pixelsDisplay aspect ratio : 16:9Frame rate : 29.970 fpsColor space : YUVChroma subsampling : 4:2:0Bit depth : 8 bitsScan type : InterlacedScan order : Top Field FirstCompression mode : LossyBits/(Pixel*Frame) : 0.246Stream size : 1 006 MiB (93%)
AudioID : 2049 (0x801)Menu ID : 1 (0x1)Format : AC-3Format/Info : Audio Coding 3Mode extension : CM (complete main)Codec ID : 129Duration : 9mn 12sBit rate mode : ConstantBit rate : 384 KbpsChannel(s) : 6 channelsChannel positions : Front: L C R, Side: L R, LFESampling rate : 48.0 KHzBit depth : 16 bitsCompression mode : LossyStream size : 25.3 MiB (2%)Language : English
Text #1ID : 2048 (0x800)608-1Menu ID : 1 (0x1)Format : EIA-608Muxing mode : A/53 / DTVCC TransportMuxing mode, more info : Muxed in Video #1Duration : 9mn 12sStream size : 0.00 Byte (0%)
Text #2ID : 2048 (0x800)1Menu ID : 1 (0x1)Format : EIA-708Muxing mode : A/53 / DTVCC TransportMuxing mode, more info : Muxed in Video #1Duration : 9mn 12sStream size : 0.00 Byte (0%)

Скриншоты



Other forum [Profile] [PM]
Display posts from previous:    
Reply to topic

The time now is: Today 21:08

All times are GMT + 3 Hours



You cannot post new topics in this forum
You cannot reply to topics in this forum
You cannot edit your posts in this forum
You cannot delete your posts in this forum
You cannot vote in polls in this forum
You cannot attach files in this forum
You cannot download files in this forum