Today is a free download without charge Download

Бригада / Серии: 1-15 из 15 (Алексей Сидоров) [2002, Боевик, DVDRip]

Reply to topic
 
Author
Message

Omen ®

Longevity: 9 years 1 month

Posts: 181086

Торрент-статистика

Post 24-Feb-2013 21:32

[Quote]

Бригада
Год выпуска: 2002
Производство: "АВАТАР ФИЛЬМ"
Жанр: Боевик
Продолжительность: ~ 52 мин серия
Режиссёр: Алексей Сидоров
В главных ролях::
Сергей Безруков - Саша Белов
Дмитрий Дюжев - Космос
Павел Майков - Пчела
Владимир Вдовиченков - Фил
Екатерина Гусева - Оля
Андрей Панин - Опер

Описание: «Бригада» — 15-ти серийный телевизионный художественный фильм. Сценарий фильма написан в 1998 г. и навеян реальными событиями, происходившими в России в 90-х годах, главным образом, в среде преступных группировок. Основа сюжета - типичная для своего времени история молодежной банды, постепенно выросшей сначала в рекетирскую "бригаду", а затем во влиятельное преступное сообщество. Особенностью сериала является попытка авторов изобразить события изнутри явления, не вдаваясь в моральную оценку. На фоне удачно смонтированной ленты и блестящей игры Сергея Безрукова (главарь "Белый") показана классическая и почти романтическая история четырех друзей ("Белый", "Космос", "Пчёла", "Фил"), имевшая, учитывая образ занятий главных героев, вполне закономерный финал.
Доп. информация: релиз -
Данный релиз с PAL версии
звук не кодировался - оставлен оригинал исходника.
тонкости просмотра фильмов с 6 канальным звуком - читаем FAQ

В эпизодических ролях:

Сергей Апрельский - Муха [1-2,10 серии]
Мария Аронова - Катя [5,7-9,15 серии]
Виталий Безруков - Собачник [2 серия]
Александр Белявский - Виктор Петрович [8-11,13,15 серии]
Александра Буданова - Анна [10-12 серии]
Анатолий Вайсман - Подручный Введенского [5-8,14-15 серии]
Игорь Виноградов - Ваня [13-15 серии]
Александр Высоковский - Макс [6,8-9,11-15 серии]
Сергей Гармаш - Генерал СОБРа [12 серия]
Дмитрий Гуменецкий - Шмидт [11-12,14 серии]
Владимир Довжик - Юрист [4-5 серии]
Николай Еременко-младший - Отец Космоса [3-5,10,15 серии]
Михаил Жигалов - Лука [8-9 серии]
Александр Иншаков - Александр [2-3,6,11-12,15 серии]
Алексей Кравченко - Введенский [4-9,11,13-14 серии]
Леонид Куравлев - Генерал МВД [5-6 серии]
Николай Лещуков - Бек [7-8 серии]
Фархад Махмудов - Фархад [1,6-8 серии]
Петр Меркурьев - Профессор [4 серия]
Алла Мещерякова - Мать Пчелы [11,15 серии]
Али Мухаммад - Абдула-Нури [6-8 серии]
Александра Назарова - Бабушка Оли [5,7-8,13-15 серии]
Ходжа-Дурды Нарлиев - Отец Фархада [8 серия]
Яна Николаева - Жена Введенского [8-9 серии]
Виктор Павлов - Отец Пчелы [5,11 серии]
Наталья Панова - Лена [1-2 серии]
Дарья Повереннова - Надя [4 серия]
Мария Порошина - Тамара Филатова [5,8,11-15 серии]
Сергей Рубеко - Петрович [7,10 серии]
Константин - Спасский Лева [7-8 серии]
Даниил Страхов - Виталик [6 серия]
Валентина Теличкина - Мама Саши Белова [1-3,7-10 серии]
Валерий Трошин - Лейтенант Никитин [2-4,13,15 серии]
Александр Фастовский - Человек со шрамом [4-5 серии]
Филипп Феоктистов - Кордон [10-12 серии]
Ян Цапник - Артур [4-6,14-15 серии]
Светлана Чуйкина - Секретарша Артура [4-5,8,10,14-15 серии]

Не слышно голосов, хотя остальные звуки слышны нормально / Голоса или звук очень тихие, даже на максимальной громкости

Цитата:
Проблема чаще всего наблюдается при прослушивании многоканальных звуковых дорожек на стереофонических аккустических системах и заключается в неправильной настройке аудиодекодера: на стереофонические колонки попадают лишь фронтальные каналы многоканальной дорожки, в то время как речь хранится преимущественно в центральном канале.
Решение заключается в корректной настройке аудиодекодера (который, разумеется, предварительно должен быть установлен — см. п. №0): ему необходимо указать, что многоканальный сигнал следует микшировать на двухканальных (N-канальный, при наличии соответствующей N-канальной аккустической системы)
При использовании наушников, можно так же установить тип выхода «Head related transfer function (HRTF)→» — для эмуляции пространственного звучания (работает, разумеется, лишь с многоканальными звуковыми дорожками, и лишь при прослушивании их в наушниках).
Там же можно поднять громкость звука («gain» / «volume»), если её всё равно недостаточно; там же решаются любые другие проблемы, связанные с декодированием звука. Многие плееры позволяют получить информацию об используемом ими аудиодекодере
Сэмпл - http://multi-up.com/835358
Качество: DVDRip
Формат: AVI
Видео кодек: XviD
Аудио кодек: AC3
Видео: 720x432 (1.67:1), 25 fps, XviD build 65 ~1576 kbps avg, 0.20 bit/pixel
Аудио: 48 kHz, AC3 Dolby Digital, 3/2 (L,C,R,l,r) + LFE ch, ~448 kbps

MI

Бригада.DVDRip-SVAT\Бригада.01.DVDRip-SVAT.avi
Format : AVI
Format/Info : Audio Video Interleave
File size : 742 MiB
Duration : 51mn 0s
Overall bit rate : 2 035 Kbps
Writing application : VirtualDubMod 1.5.10.3 | www.virtualdub-fr.org || (build 2550/release)
Writing library : VirtualDubMod build 2550/release
Video
ID : 0
Format : MPEG-4 Visual
Format profile : Advanced [email protected]
Format settings, BVOP : 2
Format settings, QPel : No
Format settings, GMC : No warppoints
Format settings, Matrix : Custom
Codec ID : XVID
Codec ID/Hint : XviD
Duration : 51mn 0s
Bit rate : 1 577 Kbps
Width : 720 pixels
Height : 432 pixels
Display aspect ratio : 1.667
Frame rate : 25.000 fps
Color space : YUV
Chroma subsampling : 4:2:0
Bit depth : 8 bits
Scan type : Progressive
Compression mode : Lossy
Bits/(Pixel*Frame) : 0.203
Stream size : 575 MiB (78%)
Writing library : XviD 65
Audio
ID : 1
Format : AC-3
Format/Info : Audio Coding 3
Mode extension : CM (complete main)
Format settings, Endianness : Big
Codec ID : 2000
Duration : 51mn 0s
Bit rate mode : Constant
Bit rate : 448 Kbps
Channel(s) : 6 channels
Channel positions : Front: L C R, Side: L R, LFE
Sampling rate : 48.0 KHz
Bit depth : 16 bits
Compression mode : Lossy
Stream size : 163 MiB (22%)
Alignment : Split accross interleaves
Interleave, duration : 40 ms (1.00 video frame)
Interleave, preload duration : 500 ms

Скриншоты

Other forum [Profile] [PM]
Display posts from previous:    
Reply to topic

The time now is: Today 22:26

All times are GMT + 3 Hours



You cannot post new topics in this forum
You cannot reply to topics in this forum
You cannot edit your posts in this forum
You cannot delete your posts in this forum
You cannot vote in polls in this forum
You cannot attach files in this forum
You cannot download files in this forum