Today is a free download without charge Download

Восьмидесятые 2 / Серии: 1-20 из 20 (Федор Стуков) [2013, комедия, SATRip - AVC]

Reply to topic
 
Author
Message

Omen ®

Longevity: 9 years 1 month

Posts: 181086

Торрент-статистика

Post 24-Feb-2013 21:32

[Quote]

Восьмидесятые 2- Год выпуска: 2013
Производство: "Гуд Стори Медиа", совместно совместно с «Леан-М»
Жанр: комедия
Продолжительность: ~00:24:00
Субтитры: нет-Режиссёр: Федор Стуков-В ролях: Александр Якин, Наталья Земцова, Александр Половцев, Мария Аронова, Леонид Громов, Дмитрий Белоцерковский, Юлия Сулес, Александр Новицкий, Роман Фомин, Ирина Чипиженко, Александр Мальков, Никита Ефремов, Анастасия Балякина, Артур Ваха, Юрий Королев, Николай Надежкин, Дмитрий Шевченко, Зоя Давыдова, Олег Балашов, Анна Цуканова-Котт, Наталья Карпунина, Игорь Лагутин, Роман Маякин, Елена Лебедева, Виктория Левкина, Олег Смирнов, Олег Комаров, Эдуард Чемодаков, Игорь Бондаренко, Илья Соболев, Дмитрий Собачкин, Максим Ратинер, Алексей Паничев, Екатерина Коновалова, Руслан Спояло, Сергей Климков-Описание: Сериал «Восьмидесятые» - это история про один из самых интересных периодов в жизни нашей страны. Мы как-то обходились без интернета и мобильного телефона. А чтобы передать ключ от квартиры, просто оставляли его под ковриком. Это было странное время, когда нельзя было ничего купить, но достать можно было все. В каждой квартире обязательно стояли югославский гарнитур и шведская стенка, а лучшим подарком были французские духи и электрическая бритва.
Это время и вспоминает второкурсник Ваня Смирнов, который живет в обычной московской хрущевке и первым в своей семье получает высшее образование. Ваня (в исполнении актера Александра Якина) - будущее семьи, его отец Геннадий (в исполнении актера Александра Половцева) возлагает на сына большие надежды, хотя сам порой думает, что «лучше бы тот на завод пошел». Мать Вани, Людмила (в исполнении актрисы Марии Ароновой), обожает старшего сына и его маленького братика Мишу, вечно хлопочет по хозяйству и пытается разнообразить скудный советский быт.
Осенью 86-го года в жизни Вани случается событие, которое переворачивает всю его жизнь - прямо на пороге общаги он встречает Ингу, и... влюбляется в нее без памяти.-Доп. Информация: Спасибо }{oтт@бь)ч за предоставленный исходник!-Любая реклама ОТСУТСТВУЕТ!!!--Качество: SATRip - AVC [Исходник DVB]
Формат: MKV
Видео кодек: H.264
Аудио кодек: AC3
Видео: x264, 704 х 430**768 х 430 (16:9), 25,000 кадр/сек, ~ 1514 Кбит/сек, ~ 0.200 bit/pixel
Аудио: AC3, 48.0 KHz, 2 канала(ов), 256 kbs

MI

Complete name : Восьмидесятые 2.01 серия.2013.SATRip-AVC.Metla111.mkv
Format : Matroska
Format version : Version 2
File size : 301 MiB
Duration : 23mn 46s
Overall bit rate : 1 773 Kbps
Encoded date : UTC 2013-01-28 18:38:53
Writing application : mkvmerge v5.8.0 ('No Sleep / Pillow') built on Sep 2 2012 15:37:04
Writing library : libebml v1.2.3 + libmatroska v1.3.0
Video
ID : 1
Format : AVC
Format/Info : Advanced Video Codec
Format profile : [email protected]
Format settings, CABAC : Yes
Format settings, ReFrames : 12 frames
Codec ID : V_MPEG4/ISO/AVC
Duration : 23mn 46s
Bit rate : 1 514 Kbps
Width : 704 pixels
Height : 430 pixels
Display aspect ratio : 16:9
Frame rate mode : Constant
Frame rate : 25.000 fps
Color space : YUV
Chroma subsampling : 4:2:0
Bit depth : 8 bits
Scan type : Progressive
Bits/(Pixel*Frame) : 0.200
Stream size : 252 MiB (84%)
Writing library : x264 core 125 r2208 d9d2288
Encoding settings : cabac=1 / ref=12 / deblock=1:-3:-3 / analyse=0x3:0x113 / me=umh / subme=9 / psy=1 / psy_rd=1.00:0.20 / mixed_ref=1 / me_range=32 / chroma_me=1 / trellis=2 / 8x8dct=1 / cqm=0 / deadzone=21,11 / fast_pskip=1 / chroma_qp_offset=-3 / threads=6 / lookahead_threads=1 / sliced_threads=0 / nr=0 / decimate=0 / interlaced=0 / bluray_compat=0 / constrained_intra=0 / bframes=10 / b_pyramid=2 / b_adapt=2 / b_bias=0 / direct=3 / weightb=1 / open_gop=0 / weightp=2 / keyint=250 / keyint_min=25 / scenecut=40 / intra_refresh=0 / rc=2pass / mbtree=0 / bitrate=1514 / ratetol=1.0 / qcomp=0.70 / qpmin=0 / qpmax=69 / qpstep=4 / cplxblur=20.0 / qblur=0.5 / ip_ratio=1.40 / pb_ratio=1.30 / aq=1:1.00
Default : Yes
Forced : No
Color primaries : BT.601 PAL
Transfer characteristics : BT.470 System B, BT.470 System G
Matrix coefficients : BT.601
Audio
ID : 2
Format : AC-3
Format/Info : Audio Coding 3
Mode extension : CM (complete main)
Format settings, Endianness : Big
Codec ID : A_AC3
Duration : 23mn 46s
Bit rate mode : Constant
Bit rate : 256 Kbps
Channel(s) : 2 channels
Channel positions : Front: L R
Sampling rate : 48.0 KHz
Bit depth : 16 bits
Compression mode : Lossy
Stream size : 43.5 MiB (14%)
Default : Yes
Forced : No

Log - x264

raw [info]: 704x430p 12:11 @ 25/1 fps (cfr)
x264 [info]: using SAR=12/11
x264 [info]: using cpu capabilities: MMX2 SSE2Fast SSSE3 FastShuffle SSE4.2
x264 [info]: profile High, level 3.1
x264 [info]: frame I:252 Avg QP:16.90 size: 52313
x264 [info]: frame P:10905 Avg QP:19.39 size: 15266
x264 [info]: frame B:24508 Avg QP:21.47 size: 3691
x264 [info]: consecutive B-frames: 7.4% 5.7% 13.6% 48.3% 10.4% 12.7% 0.5% 0.4% 0.2% 0.3% 0.5%
x264 [info]: mb I I16..4: 6.6% 67.4% 26.1%
x264 [info]: mb P I16..4: 0.6% 8.0% 1.5% P16..4: 33.0% 28.5% 19.1% 0.0% 0.0% skip: 9.3%
x264 [info]: mb B I16..4: 0.0% 0.5% 0.1% B16..8: 36.2% 11.9% 3.6% direct: 4.9% skip:42.8% L0:28.8% L1:41.5% BI:29.7%
x264 [info]: 8x8 transform intra:77.2% inter:50.3%
x264 [info]: direct mvs spatial:97.1% temporal:2.9%
x264 [info]: coded y,uvDC,uvAC intra: 94.0% 82.0% 56.7% inter: 25.1% 21.0% 7.9%
x264 [info]: i16 v,h,dc,p: 39% 9% 14% 38%
x264 [info]: i8 v,h,dc,ddl,ddr,vr,hd,vl,hu: 22% 10% 6% 7% 10% 13% 10% 12% 10%
x264 [info]: i4 v,h,dc,ddl,ddr,vr,hd,vl,hu: 20% 8% 4% 8% 13% 15% 11% 11% 10%
x264 [info]: i8c dc,h,v,p: 33% 22% 28% 16%
x264 [info]: Weighted P-Frames: Y:2.9% UV:2.0%
x264 [info]: ref P L0: 57.9% 16.7% 11.5% 3.0% 2.8% 1.8% 1.8% 0.9% 1.0% 0.8% 0.8% 0.8% 0.3% 0.0%
x264 [info]: ref B L0: 89.3% 5.8% 1.8% 0.9% 0.6% 0.5% 0.4% 0.3% 0.2% 0.2% 0.1%
x264 [info]: ref B L1: 97.2% 2.8%
x264 [info]: kb/s:1514.82

Скриншоты

-
Other forum [Profile] [PM]
Display posts from previous:    
Reply to topic

The time now is: Today 23:15

All times are GMT + 3 Hours



You cannot post new topics in this forum
You cannot reply to topics in this forum
You cannot edit your posts in this forum
You cannot delete your posts in this forum
You cannot vote in polls in this forum
You cannot attach files in this forum
You cannot download files in this forum