Today is a free download without charge Download

Там, где сердце / Where the Heart Is (Мэтт Уильямс / Matt Williams) [2000 г., США, комедия, мелодрама, драма, WEB-DL 1080p] Dub + Original Eng + Sub Rus, Eng

Reply to topic
 
Author
Message

Omen ®

Longevity: 8 years 5 months

Posts: 181087

Торрент-статистика

Post 24-Feb-2013 21:32

[Quote]

Там, где сердце / Where the Heart Is
-Страна: США
Студия: 20th Century Fox
Жанр: комедия, мелодрама, драма
Год выпуска: 2000
Продолжительность: 1:59:59-Перевод: Профессиональный (дублированный)
Cубтитры: русские, английские
Оригинальная аудиодорожка: английский-Режиссер: Мэтт Уильямс /Matt Williams-В ролях: Натали Портман /Natalie Portman/, Эшли Джад /Ashley Judd/, Стокард Ченнинг /Stockard Channing/, Джоан Кьюсак /Joan Cusack/, Джеймс Фрэйн / James Frain / , Кит Дэвид / Keith David /-Описание: Главная героиня, Новали Нэйшн — типичная Золушка. Ей семнадцать лет, у нее восьмимесячная беременность и жизненная мудрость: при любых обстоятельствах число «пять» приносит несчастье. Когда бойфренд-грубиян сажает Новали в полуразвалившуюся машину и везет в солнечную Калифорнию, он бросает ее в первом же придорожном супермаркете Wal-Mart именно в тот момент, когда касса отбивает сдачу: 5 долларов 55 центов. Героине придется пожить между магазинных полок, осторожно устраивая себе на ночь подобие квартиры с постелью, будильником, магнитофоном — чем не реклама в духе «У нас есть все, что вам нужно?»- --Сэмпл--Тип релиза: WEB-DL 1080p
Контейнер: MKV
Видео: 1918х1080p (16:9) 23.976 fps AVC 4990 Kbps
Аудио 1: Русский / AC3 / 5.1 ch. / 48.0 KHz / 448 Kbps - профессиональный (полное дублирование)
Аудио 2: Aнглийский / AC3 / 5.1 ch. / 48.0 KHz / 384 Kbps - оригинальная дорожка
Формат субтитров: softsub (SRT)
Разбиение по главам: есть-

MediaInfo

General
Unique ID : 228224357896614242667620419647729848639 (0xABB26999055AC9B8AF17E94AE568513F)
Complete name : \Where the heart is (2000)\Where.the.Heart.Is.2000.WEB-DL.1080p.Rus.Eng.mkv
Format : Matroska
Format version : Version 4 / Version 2
File size : 4.98 GiB
Duration : 1h 59mn
Overall bit rate : 5 940 Kbps
Encoded date : UTC 2013-02-22 20:19:48
Writing application : mkvmerge v6.0.0 ('Coming Up For Air') built on Jan 20 2013 09:52:00
Writing library : libebml v1.3.0 + libmatroska v1.4.0
Video
ID : 1
Format : AVC
Format/Info : Advanced Video Codec
Format profile : [email protected]
Format settings, CABAC : Yes
Format settings, ReFrames : 4 frames
Codec ID : V_MPEG4/ISO/AVC
Duration : 1h 59mn
Bit rate : 4 990 Kbps
Width : 1 918 pixels
Height : 1 080 pixels
Display aspect ratio : 16:9
Frame rate mode : Constant
Frame rate : 23.976 fps
Color space : YUV
Chroma subsampling : 4:2:0
Bit depth : 8 bits
Scan type : Progressive
Bits/(Pixel*Frame) : 0.100
Stream size : 4.18 GiB (84%)
Language : English
Default : Yes
Forced : No
Color primaries : BT.709
Transfer characteristics : BT.709
Matrix coefficients : BT.709
Audio #1
ID : 2
Format : AC-3
Format/Info : Audio Coding 3
Mode extension : CM (complete main)
Format settings, Endianness : Big
Codec ID : A_AC3
Duration : 1h 59mn
Bit rate mode : Constant
Bit rate : 448 Kbps
Channel(s) : 6 channels
Channel positions : Front: L C R, Side: L R, LFE
Sampling rate : 48.0 KHz
Bit depth : 16 bits
Compression mode : Lossy
Stream size : 384 MiB (8%)
Title : Русский AC-3 5.1 ch. 48 KHz 448 Kbps - профессиональный (полное дублирование)
Language : Russian
Default : Yes
Forced : No
Audio #2
ID : 3
Format : AC-3
Format/Info : Audio Coding 3
Mode extension : CM (complete main)
Format settings, Endianness : Big
Codec ID : A_AC3
Duration : 1h 59mn
Bit rate mode : Constant
Bit rate : 384 Kbps
Channel(s) : 6 channels
Channel positions : Front: L C R, Side: L R, LFE
Sampling rate : 48.0 KHz
Bit depth : 16 bits
Compression mode : Lossy
Stream size : 330 MiB (6%)
Title : Английский AC-3 5.1 ch. 48 KHz 384 Kbps - оригинальная дорожка
Language : English
Default : No
Forced : No
Text #1
ID : 4
Format : UTF-8
Codec ID : S_TEXT/UTF8
Codec ID/Info : UTF-8 Plain Text
Title : Русский
Language : Russian
Default : No
Forced : No
Text #2
ID : 5
Format : UTF-8
Codec ID : S_TEXT/UTF8
Codec ID/Info : UTF-8 Plain Text
Title : Английский
Language : English
Default : No
Forced : No
Menu
00:00:00.000 : en:Going To California
00:04:30.000 : en:Shopping For Shoes
00:06:15.000 : en:Bad Luck
00:14:54.000 : en:Moving In
00:21:00.000 : en:A Sick Tree
00:25:43.000 : en:A Wal-Mart Baby
00:28:04.000 : en:A Big Celebrity
00:38:43.000 : en:The Welcome Woman
00:40:03.000 : en:Forney
00:50:40.000 : en:A Christmas Story
00:57:12.000 : en:Ruth Meyers
01:02:29.000 : en:A Tornado
01:09:29.000 : en:Sister's Estate
01:12:10.000 : en:Making An Enemy
01:16:48.000 : en:Back Home
01:20:36.000 : en:Bad News
01:29:52.000 : en:Love
01:42:54.000 : en:Rock Bottom
01:50:04.000 : en:Something Better
01:54:33.000 : en:End Titles

Скриншоты

Other forum [Profile] [PM]
Display posts from previous:    
Reply to topic

The time now is: Today 01:19

All times are GMT + 3 Hours



You cannot post new topics in this forum
You cannot reply to topics in this forum
You cannot edit your posts in this forum
You cannot delete your posts in this forum
You cannot vote in polls in this forum
You cannot attach files in this forum
You cannot download files in this forum