Today is a free download without charge Download

Это правда, если я вру 2 / La verite si je mens! 2 (Тома Жило / Thomas Gilou) [2000, Франция, комедия, HDTVRip 720p] DVO (R5) + Dub + Original Fre

Reply to topic
 
Author
Message

Omen ®

Longevity: 8 years 5 months

Posts: 181087

Торрент-статистика

Post 24-Feb-2013 21:32

[Quote]

Это правда, если я вру 2 / La verite si je mens! 2
Страна: Франция
Жанр: комедия
Год выпуска: 2000
Продолжительность: 01:43:29
Перевод: Профессиональный (двухголосый закадровый)
Перевод 2: Профессиональный (дублированный)
Cубтитры: нет
Оригинальная аудиодорожка: французский
Режиссер: Тома Жило / Thomas Gilou
В ролях: Ришар Анконина, Жозе Гарсия, Бруно Соло, Гилберт Мелки, Гад Элмале, Дэниэл Превост, Ауре Атика, Амира Казар, Элиза Товати
Описание: Эдди, Иван, Серж и их друзья — болтливые и темпераментные парни, которые обожают быстроходные автомобили, моментально раздевающихся женщин, сверкающие часы и блестящие тряпки. Еще недавно они торговали модной одеждой, были преуспевающими бизнесменами, но конкуренты давят все сильнее и сильнее. А тут еще жены и любовницы.
Так что впору «выкидывать белый флаг»! Спасти положение может только чудо, и вот эти маленькие Давиды бросают очень остроумный и изобретательный вызов Голиафу — огромной сети супермаркетов «Евроскидка»…


Сэмпл: http://multi-up.com/834782
Тип релиза: HDTVRip 720p
Контейнер: MKV
Видео: MPEG-4 AVC, 1280x720, 5790 кбит/сек, 25.00 fps
Аудио: 48 kHz, AC3, 3/2 (L,C,R,l,r) + LFE ch, ~448.00 kbps avg DVO R5
Аудио 2: 48 kHz, AC3 Dolby Digital, 2/0 (L,R) ch, 192 kbps DUB
Аудио 3: 48 kHz, AC3, 3/2 (L,C,R,l,r) + LFE ch, ~256.00 kbps avg original

MediaInfo

ФИЛЬМЫ\ЭТО ПРАВДА, ЕСЛИ Я ВРУ 2(DVO+DUB).FRENCH.720p.x264.AC3-lord_i_74.mkv
Формат : Matroska
Версия формата : Version 2
Размер файла : 4,84 Гбайт
Продолжительность : 1 ч. 45 м.
Общий поток : 6590 Кбит/сек
Дата кодирования : UTC 2012-12-14 20:31:42
Программа кодирования : mkvmerge v5.0.1 ('Es ist Sommer') built on Oct 9 2011 11:55:43
Библиотека кодирования : libebml v1.2.2 + libmatroska v1.3.0
Видео
Идентификатор : 1
Формат : AVC
Формат/Информация : Advanced Video Codec
Профиль формата : [email protected]
Параметр CABAC формата : Да
Параметр ReFrames формата : 9 кадров
Идентификатор кодека : V_MPEG4/ISO/AVC
Продолжительность : 1 ч. 45 м.
Битрейт : 5790 Кбит/сек
Ширина : 1280 пикс.
Высота : 720 пикс.
Соотношение сторон : 16:9
Частота кадров : 25,000 кадр/сек
Цветовое пространство : YUV
Подвыборка цветности : 4:2:0
Битовая глубина : 8 бит
Тип развёртки : Прогрессивная
Бит/(Пиксели*Кадры) : 0.251
Размер потока : 4,08 Гбайт (84%)
Заголовок : La.Verite.Si.Je.Mens.2.FRENCH.720p.x264.AC3.WRD
Библиотека кодирования : x264 core 120 r2146 bcd41db
Настройки программы : cabac=1 / ref=9 / deblock=1:-2:-2 / analyse=0x3:0x133 / me=umh / subme=10 / psy=1 / psy_rd=1.00:0.00 / mixed_ref=1 / me_range=32 / chroma_me=1 / trellis=2 / 8x8dct=1 / cqm=0 / deadzone=21,11 / fast_pskip=0 / chroma_qp_offset=-2 / threads=12 / sliced_threads=0 / nr=0 / decimate=1 / interlaced=0 / bluray_compat=0 / constrained_intra=0 / bframes=5 / b_pyramid=2 / b_adapt=2 / b_bias=0 / direct=3 / weightb=1 / open_gop=0 / weightp=2 / keyint=250 / keyint_min=25 / scenecut=40 / intra_refresh=0 / rc_lookahead=120 / rc=2pass / mbtree=1 / bitrate=5790 / ratetol=1.0 / qcomp=0.80 / qpmin=0 / qpmax=69 / qpstep=4 / cplxblur=20.0 / qblur=0.5 / ip_ratio=1.40 / aq=1:1.00
Аудио #1
Идентификатор : 2
Формат : AC-3
Формат/Информация : Audio Coding 3
Расширение режима : CM (complete main)
Идентификатор кодека : A_AC3
Продолжительность : 1 ч. 45 м.
Вид битрейта : Постоянный
Битрейт : 448 Кбит/сек
Каналы : 6 каналов
Расположение каналов : Front: L C R, Side: L R, LFE
Частота : 48,0 КГц
Битовая глубина : 16 бит
Метод сжатия : С потерями
Размер потока : 337 Мбайт (7%)
Заголовок : DVO R5
Язык : Russian
Аудио #2
Идентификатор : 3
Формат : AC-3
Формат/Информация : Audio Coding 3
Расширение режима : CM (complete main)
Идентификатор кодека : A_AC3
Продолжительность : 1 ч. 45 м.
Вид битрейта : Постоянный
Битрейт : 192 Кбит/сек
Каналы : 2 канала
Расположение каналов : Front: L R
Частота : 48,0 КГц
Битовая глубина : 16 бит
Метод сжатия : С потерями
Размер потока : 144 Мбайт (3%)
Заголовок : DUB
Язык : Russian
Аудио #3
Идентификатор : 4
Формат : AC-3
Формат/Информация : Audio Coding 3
Расширение режима : CM (complete main)
Идентификатор кодека : A_AC3
Продолжительность : 1 ч. 45 м.
Вид битрейта : Постоянный
Битрейт : 256 Кбит/сек
Каналы : 6 каналов
Расположение каналов : Front: L C R, Side: L R, LFE
Частота : 48,0 КГц
Битовая глубина : 16 бит
Метод сжатия : С потерями
Размер потока : 192 Мбайт (4%)
Язык : French

Скриншоты

Other forum [Profile] [PM]
Display posts from previous:    
Reply to topic

The time now is: Today 23:03

All times are GMT + 3 Hours



You cannot post new topics in this forum
You cannot reply to topics in this forum
You cannot edit your posts in this forum
You cannot delete your posts in this forum
You cannot vote in polls in this forum
You cannot attach files in this forum
You cannot download files in this forum