Today is a free download without charge Download

Покорители волн / Chasing Mavericks (Майкл Эптед, Кёртис Хэнсон / Michael Apted, Curtis Hanson) [2012, США, драма, спорт, BDRip 720p] Dub + Original Eng + Sub Rus Eng

Reply to topic
 
Author
Message

Omen ®

Longevity: 8 years 5 months

Posts: 181087

Торрент-статистика

Post 24-Feb-2013 21:32

[Quote]

Покорители волн / Chasing Mavericks
«Самые опасные волны на планете изменят их навсегда»
- Страна: США
Студия: Fox 2000 Pictures, Walden Media
Жанр: драма, спорт
Год выпуска: 2012
Продолжительность: 01:56:30-Перевод:
1. Профессиональный (дублированный)
Оригинальная аудиодорожка: английский
Cубтитры: русские, английские
Навигация по главам: есть-Режиссер: Майкл Эптед, Кёртис Хэнсон / Michael Apted, Curtis Hanson
В ролях: Джерард Батлер, Джонни Уэстон, Элизабет Шу, Эбигейл Спенсер, Ливэн Рамбин, Грег Лонг, Питер Мэл, Зэк Уормхудт, Девин Криттенден, Тейлор Хэндли
Описание: Серфинг — спорт королей. Не каждый сможет справиться с огромными волнами у побережья Калифорнии. Их называют Мавериками, они достигают 25 метров в высоту. Хессон не раз покорял стихию, но не раскрыл своего секрета никому. Он дал обещание любимой женщине — больше не рисковать жизнью. Но смелость юного Джея подкупила Хессона. Смогут ли они, глядя смерти в лицо, удержаться на гребне волны?-Доп. информация:
Возрастные ограничения: 12+
Рейтинг MPAA: PG (рекомендуется присутствие родителей)-IMDB: 6.6 (3 242) // Kinopoisk: 7.879 (7 455) // Sample-Исходник: BD Remux (1080p, 23.976 fps, MPEG-4 AVC, ~29627 kbps)
Тип релиза: BDRip 720p
Контейнер: MKV
Видео: 1280x692 (1.85:1), 23.976 fps, ~5800 kbps, 0.273 bpp
Аудио 1: RUS AC3 5.1, 48 kHz, 448 kbps :: Дублированный
Аудио 2: ENG DTS 5.1, 48 kHz, 1509 Kbps, 24 bits
Субтитры 1-2: русские, английские
Формат субтитров: softsub (SRT)

x264

x264 [info]: 1280x692p 1:1 @ 24000/1001 fps (cfr)
x264 [info]: using SAR=1/1
x264 [info]: using cpu capabilities: MMX2 SSE2Fast SSSE3 FastShuffle SSE4.2 AVX
x264 [info]: profile High, level 4.1
x264 [info]: cabac=1 ref=8 deblock=1:-2:-2 analyse=0x3:0x113 me=umh subme=10 psy=1 fade_compensate=0.00 psy_rd=1.05:0.10 mixed_ref=1 me_range=32 chroma_me=1 trellis=2 8x8dct=1 cqm=0 deadzone=21,11 fast_pskip=0 chroma_qp_offset=-3 threads=6 lookahead_threads=1 sliced_threads=0 nr=0 decimate=0 interlaced=0 bluray_compat=0 constrained_intra=0 bframes=9 b_pyramid=2 b_adapt=2 b_bias=0 direct=3 weightb=1 open_gop=0 weightp=2 keyint=250 keyint_min=23 scenecut=40 intra_refresh=0 rc_lookahead=60 rc=2pass mbtree=1 bitrate=5800 ratetol=1.0 qcomp=0.70 qpmin=0 qpmax=69 qpstep=4 cplxblur=20.0 qblur=0.5 vbv_maxrate=50000 vbv_bufsize=62500 nal_hrd=none ip_ratio=1.30 aq=1:1.00
x264 [info]: frame I:1426 Avg QP:15.87 size:147119
x264 [info]: frame P:38473 Avg QP:19.44 size: 54414
x264 [info]: frame B:127694 Avg QP:20.64 size: 21655
x264 [info]: consecutive B-frames: 2.2% 2.9% 6.5% 36.8% 15.5% 25.6% 4.6% 4.3% 0.9% 0.6%
x264 [info]: mb I I16..4: 13.7% 66.6% 19.7%
x264 [info]: mb P I16..4: 2.0% 16.9% 3.0% P16..4: 31.8% 22.7% 13.2% 0.0% 0.0% skip:10.3%
x264 [info]: mb B I16..4: 0.1% 2.4% 0.8% B16..8: 38.0% 12.5% 4.0% direct: 6.7% skip:35.5% L0:41.0% L1:43.4% BI:15.6%
x264 [info]: 8x8 transform intra:74.8% inter:63.7%
x264 [info]: direct mvs spatial:97.9% temporal:2.1%
x264 [info]: coded y,uvDC,uvAC intra: 86.6% 80.8% 54.8% inter: 31.8% 25.2% 10.0%
x264 [info]: i16 v,h,dc,p: 47% 16% 7% 29%
x264 [info]: i8 v,h,dc,ddl,ddr,vr,hd,vl,hu: 8% 17% 7% 8% 12% 9% 15% 9% 15%
x264 [info]: i4 v,h,dc,ddl,ddr,vr,hd,vl,hu: 17% 13% 4% 7% 12% 9% 15% 8% 15%
x264 [info]: i8c dc,h,v,p: 38% 33% 14% 15%
x264 [info]: Weighted P-Frames: Y:2.7% UV:1.4%
x264 [info]: ref P L0: 52.6% 9.5% 15.0% 7.5% 5.5% 4.3% 3.4% 2.1% 0.2% 0.0%
x264 [info]: ref B L0: 77.6% 11.0% 5.2% 2.7% 1.9% 1.0% 0.5%
x264 [info]: ref B L1: 94.1% 5.9%
x264 [info]: kb/s:5800.82

MediaInfo

General
Unique ID : 244771068505897048872253708096131527489 (0xB825316AC68F05799A254495062F7341)
Complete name : E:\Chasing.Mavericks.2012.BDRip.720p.AC3.DTS.mkv
Format : Matroska
Format version : Version 4 / Version 2
File size : 6.32 GiB
Duration : 1h 56mn
Overall bit rate : 7 761 Kbps
Movie name : Chasing Mavericks (2012)
Encoded date : UTC 2013-02-23 10:35:18
Writing application : mkvmerge v6.0.0 ('Coming Up For Air') built on Jan 20 2013 09:52:00
Writing library : libebml v1.3.0 + libmatroska v1.4.0
Video
ID : 1
Format : AVC
Format/Info : Advanced Video Codec
Format profile : [email protected]
Format settings, CABAC : Yes
Format settings, ReFrames : 8 frames
Codec ID : V_MPEG4/ISO/AVC
Duration : 1h 56mn
Bit rate : 5 800 Kbps
Width : 1 280 pixels
Height : 692 pixels
Display aspect ratio : 1.85:1
Frame rate mode : Constant
Frame rate : 23.976 fps
Color space : YUV
Chroma subsampling : 4:2:0
Bit depth : 8 bits
Scan type : Progressive
Bits/(Pixel*Frame) : 0.273
Stream size : 4.60 GiB (73%)
Title : Chasing Mavericks (2012)
Writing library : x264 core 129 r2245kMod bc13772
Encoding settings : cabac=1 / ref=8 / deblock=1:-2:-2 / analyse=0x3:0x113 / me=umh / subme=10 / psy=1 / fade_compensate=0.00 / psy_rd=1.05:0.10 / mixed_ref=1 / me_range=32 / chroma_me=1 / trellis=2 / 8x8dct=1 / cqm=0 / deadzone=21,11 / fast_pskip=0 / chroma_qp_offset=-3 / threads=6 / lookahead_threads=1 / sliced_threads=0 / nr=0 / decimate=0 / interlaced=0 / bluray_compat=0 / constrained_intra=0 / bframes=9 / b_pyramid=2 / b_adapt=2 / b_bias=0 / direct=3 / weightb=1 / open_gop=0 / weightp=2 / keyint=250 / keyint_min=23 / scenecut=40 / intra_refresh=0 / rc_lookahead=60 / rc=2pass / mbtree=1 / bitrate=5800 / ratetol=1.0 / qcomp=0.70 / qpmin=0 / qpmax=69 / qpstep=4 / cplxblur=20.0 / qblur=0.5 / vbv_maxrate=50000 / vbv_bufsize=62500 / nal_hrd=none / ip_ratio=1.30 / aq=1:1.00
Language : English
Default : Yes
Forced : No
Matrix coefficients : BT.709
Audio #1
ID : 2
Format : AC-3
Format/Info : Audio Coding 3
Mode extension : CM (complete main)
Format settings, Endianness : Big
Codec ID : A_AC3
Duration : 1h 56mn
Bit rate mode : Constant
Bit rate : 448 Kbps
Channel(s) : 6 channels
Channel positions : Front: L C R, Side: L R, LFE
Sampling rate : 48.0 KHz
Bit depth : 16 bits
Compression mode : Lossy
Stream size : 373 MiB (6%)
Title : Dub / DD 5.1, 48kHz, 448kbps
Language : Russian
Default : Yes
Forced : No
Audio #2
ID : 3
Format : DTS
Format/Info : Digital Theater Systems
Format profile : ES
Mode : 16
Format settings, Endianness : Big
Codec ID : A_DTS
Duration : 1h 56mn
Bit rate mode : Constant
Bit rate : 1 509 Kbps
Channel(s) : 6 channels
Channel positions : Front: L C R, Side: L R, LFE
Sampling rate : 48.0 KHz
Bit depth : 24 bits
Compression mode : Lossy
Stream size : 1.23 GiB (19%)
Title : Original / DTS 5.1, 48kHz, 1509kbps, 24bits
Language : English
Default : No
Forced : No
Text #1
ID : 4
Format : UTF-8
Codec ID : S_TEXT/UTF8
Codec ID/Info : UTF-8 Plain Text
Language : Russian
Default : No
Forced : No
Text #2
ID : 5
Format : UTF-8
Codec ID : S_TEXT/UTF8
Codec ID/Info : UTF-8 Plain Text
Language : English
Default : No
Forced : No
Menu
00:00:00.000 : en:Chapter 01
00:05:13.146 : en:Chapter 02
00:07:44.881 : en:Chapter 03
00:11:31.524 : en:Chapter 04
00:15:09.784 : en:Chapter 05
00:20:04.912 : en:Chapter 06
00:22:32.810 : en:Chapter 07
00:27:43.120 : en:Chapter 08
00:31:57.833 : en:Chapter 09
00:34:10.840 : en:Chapter 10
00:37:53.229 : en:Chapter 11
00:40:45.360 : en:Chapter 12
00:45:49.330 : en:Chapter 13
00:48:47.925 : en:Chapter 14
00:50:23.062 : en:Chapter 15
00:53:56.400 : en:Chapter 16
00:56:32.222 : en:Chapter 17
00:59:31.610 : en:Chapter 18
01:01:29.185 : en:Chapter 19
01:04:17.562 : en:Chapter 20
01:06:01.457 : en:Chapter 21
01:08:57.884 : en:Chapter 22
01:11:13.519 : en:Chapter 23
01:15:10.631 : en:Chapter 24
01:17:06.038 : en:Chapter 25
01:25:02.306 : en:Chapter 26
01:27:09.349 : en:Chapter 27
01:30:10.363 : en:Chapter 28
01:32:43.725 : en:Chapter 29
01:35:23.134 : en:Chapter 30
01:37:46.861 : en:Chapter 31
01:40:46.374 : en:Chapter 32
01:43:46.220 : en:Chapter 33
01:48:28.794 : en:Chapter 34
01:52:08.096 : en:Chapter 35

Скриншоты


Сравнения

Source
BDRip
BDRip[kaiser21rus]
Other forum [Profile] [PM]
Display posts from previous:    
Reply to topic

The time now is: Today 02:14

All times are GMT + 3 Hours



You cannot post new topics in this forum
You cannot reply to topics in this forum
You cannot edit your posts in this forum
You cannot delete your posts in this forum
You cannot vote in polls in this forum
You cannot attach files in this forum
You cannot download files in this forum