Today is a free download without charge Download

Девочки против мальчиков / Girls Against Boys (Остин Чик / Austin Chick) [2012, США, триллер, драма, BDRip 720p] VO + Original Eng + Sub (Eng)

Reply to topic
 
Author
Message

Omen ®

Longevity: 8 years 5 months

Posts: 181087

Торрент-статистика

Post 24-Feb-2013 21:32

[Quote]

Девочки против мальчиковGirls Against Boys«Bad Girls Don't Cry. They Get Even.»- Страна: США
Жанр: триллер, драма
Год выпуска: 2012
Продолжительность: 01:33:05-Перевод: Одноголосый закадровый [den904]
Оригинальная аудиодорожка: английский
Субтитры: английские
Режиссер: Остин Чик / Austin Chick
В ролях: Даниэль Панабэйкер, Николь Лалиберт, Лиам Эйкен, Майкл Сталь-Дэвид, Эндрю Ховард, Лорен Эшли, Уилл Брилл, Тина Бёрд, Иван Кардона, Рауль Кассо, Роберт Чанг, Сьюзи Чо-Описание: Психологический триллер о двух девушках, которые решаются на убийство парня ради забавы.-


MPAA: R - Лицам до 17 лет обязательно присутствие взрослого-

Доп. Информация

Сценарий: Остин Чик / Austin Chick
Продюсер: Клэй Флорен / Clay Floren, Айми Ши / Aimee Shieh, Дэниэл Соллинжер / Daniel Sollinger
Оператор: Катрин Вестергард / Kathryn Westergaard
Композитор: Натан Ларсон / Nathan Larson
Сборы в США: $7 529
Мировая премьера: 9 марта 2012
-Качество: BDRip 720p
Контейнер: MKV
Видео: AVC;1280x720 (16:9);4395 Kbps;23,976 fps;0,199 bpp
Аудио №1: русский; AC3;640 Kbps;CBR;6 ch;16 bit
Аудио №2: английский; AC3;640 Kbps;CBR;6 ch;16 bit
Формат субтитров: softsub (SRT)-

Media Info

General
Unique ID : 226385619885589459437152270020881899217 (0xAA5048D082EEC5A39A2FD816142F5ED1)
Complete name : F:\Girls_Against_Boys_720p.mkv
Format : Matroska
Format version : Version 4 / Version 2
File size : 3.69 GiB
Duration : 1h 33mn
Overall bit rate : 5 675 Kbps
Encoded date : UTC 2013-02-23 09:51:29
Writing application : mkvmerge v6.0.0 ('Coming Up For Air') built on Jan 20 2013 09:52:00
Writing library : libebml v1.3.0 + libmatroska v1.4.0
Video
ID : 1
Format : AVC
Format/Info : Advanced Video Codec
Format profile : [email protected]
Format settings, CABAC : Yes
Format settings, ReFrames : 5 frames
Codec ID : V_MPEG4/ISO/AVC
Duration : 1h 33mn
Bit rate : 4 395 Kbps
Width : 1 280 pixels
Height : 720 pixels
Display aspect ratio : 16:9
Frame rate mode : Constant
Frame rate : 23.976 fps
Color space : YUV
Chroma subsampling : 4:2:0
Bit depth : 8 bits
Scan type : Progressive
Bits/(Pixel*Frame) : 0.199
Stream size : 2.78 GiB (75%)
Writing library : x264 core 129 r2245 bc13772
Encoding settings : cabac=1 / ref=5 / deblock=1:0:0 / analyse=0x3:0x133 / me=umh / subme=7 / psy=1 / psy_rd=1.00:0.00 / mixed_ref=1 / me_range=16 / chroma_me=1 / trellis=1 / 8x8dct=1 / cqm=0 / deadzone=21,11 / fast_pskip=0 / chroma_qp_offset=-2 / threads=12 / lookahead_threads=2 / sliced_threads=0 / nr=0 / decimate=1 / interlaced=0 / bluray_compat=0 / constrained_intra=0 / bframes=3 / b_pyramid=2 / b_adapt=1 / b_bias=0 / direct=1 / weightb=1 / open_gop=0 / weightp=2 / keyint=250 / keyint_min=23 / scenecut=40 / intra_refresh=0 / rc_lookahead=40 / rc=2pass / mbtree=1 / bitrate=4395 / ratetol=1.0 / qcomp=0.60 / qpmin=0 / qpmax=69 / qpstep=4 / cplxblur=20.0 / qblur=0.5 / ip_ratio=1.40 / aq=1:1.00
Language : English
Default : Yes
Forced : No
Audio #1
ID : 2
Format : AC-3
Format/Info : Audio Coding 3
Mode extension : CM (complete main)
Format settings, Endianness : Big
Codec ID : A_AC3
Duration : 1h 33mn
Bit rate mode : Constant
Bit rate : 640 Kbps
Channel(s) : 6 channels
Channel positions : Front: L C R, Side: L R, LFE
Sampling rate : 48.0 KHz
Bit depth : 16 bits
Compression mode : Lossy
Stream size : 426 MiB (11%)
Language : Russian
Default : Yes
Forced : Yes
Audio #2
ID : 3
Format : AC-3
Format/Info : Audio Coding 3
Mode extension : CM (complete main)
Format settings, Endianness : Big
Codec ID : A_AC3
Duration : 1h 33mn
Bit rate mode : Constant
Bit rate : 640 Kbps
Channel(s) : 6 channels
Channel positions : Front: L C R, Side: L R, LFE
Sampling rate : 48.0 KHz
Bit depth : 16 bits
Compression mode : Lossy
Stream size : 426 MiB (11%)
Title : AC3
Language : English
Default : No
Forced : No
Text
ID : 4
Format : UTF-8
Codec ID : S_TEXT/UTF8
Codec ID/Info : UTF-8 Plain Text
Title : English
Language : English
Default : No
Forced : No
Menu
00:00:00.000 : en:00:00:00.000
00:09:26.566 : en:00:09:26.566
00:17:23.125 : en:00:17:23.125
00:26:07.357 : en:00:26:07.357
00:35:05.687 : en:00:35:05.687
00:42:46.731 : en:00:42:46.731
00:49:13.742 : en:00:49:13.742
00:59:16.553 : en:00:59:16.553
01:06:04.586 : en:01:06:04.586
01:12:15.623 : en:01:12:15.623
01:23:47.856 : en:01:23:47.856
01:28:52.869 : en:01:28:52.869

Скриншот с названием фильма

Скриншоты

Other forum [Profile] [PM]
Display posts from previous:    
Reply to topic

The time now is: Today 02:25

All times are GMT + 3 Hours



You cannot post new topics in this forum
You cannot reply to topics in this forum
You cannot edit your posts in this forum
You cannot delete your posts in this forum
You cannot vote in polls in this forum
You cannot attach files in this forum
You cannot download files in this forum