Today is a free download without charge Download

Пригород / SubUrbia (Ричард Линклейтер / Richard Linklater) [1996, США, драма, комедия, WEB-DL 720p] DVO + Original Eng

Reply to topic
 
Author
Message

Omen ®

Longevity: 8 years 5 months

Posts: 181087

Торрент-статистика

Post 24-Feb-2013 21:32

[Quote]

Пригород / SubUrbia
Страна: США
Студия: Castle Rock Entertainment , Detour Filmproduction
Жанр: драма, комедия
Год выпуска: 1996
Продолжительность: 02:01:06
Перевод: Профессиональный (двухголосый закадровый)
Cубтитры: нет
Оригинальная аудиодорожка: английский
Режиссер: Ричард Линклейтер / Richard Linklater
В ролях: Стив Зан, Паркер Поузи, Джованни Рибизи, Аджай Найду, Джейс Барток, Эми Кэри, Никки Кэтт, Самия Шоаб, Дина Спайби, Китт Брофи.
Описание: История начинается с обычной вечеринки друзей, которые «застряли» где-то между институтом и взрослой жизнью. Но ночка обещает стать неожиданно долгой. Появление бывшего одноклассника, который стал рок-звездой, разжигает страсти и конфликты в теплой компании лучших друзей.
Прежде чем забрезжит рассвет, дружба и любовь пройдут испытания или будут потеряны навсегда, а амбиции и возможности подвергнутся жесткой проверке — ведь будущее решается здесь и сейчас.
Доп. информация: SubUrbia.1996.720p..WEB-DL.AAC2.0.H.264-BS [PublicHD] взял в сети.


Тип релиза: WEB-DL 720p
Контейнер: MKV
Видео : x264, 1274x720, 1.769:1, 23.976 fps, 3 994 kbit/s, Progressive, 0.182 Bits/(Pixel*Frame)
Аудио 1: AC-3, 48 KHz, 2 ch, 192 Kbps Русский - Профессиональный (двухголосый закадровый)
Аудио 2: AC-3, 48 KHz, 2 ch, 192 Kbps Английский - Original

MediaInfo

General
Unique ID : 177312052217379691855559810062730122847 (0x85650F204CFE9000A63D70A83693D65F)
Complete name :SubUrbia_1996_WEB-DL 720p_.mkv
Format : Matroska
Format version : Version 4 / Version 2
File size : 3.78 GiB
Duration : 2h 1mn
Overall bit rate : 4 467 Kbps
Encoded date : UTC 2013-02-24 00:15:25
Writing application : mkvmerge v6.0.0 ('Coming Up For Air') built on Jan 20 2013 09:52:00
Writing library : libebml v1.3.0 + libmatroska v1.4.0
Video
ID : 1
Format : AVC
Format/Info : Advanced Video Codec
Format profile : [email protected]
Format settings, CABAC : No
Format settings, ReFrames : 2 frames
Format settings, GOP : N=1
Codec ID : V_MPEG4/ISO/AVC
Duration : 2h 1mn
Bit rate : 3 994 Kbps
Width : 1 274 pixels
Height : 720 pixels
Display aspect ratio : 16:9
Frame rate : 23.976 fps
Color space : YUV
Chroma subsampling : 4:2:0
Bit depth : 8 bits
Scan type : Progressive
Bits/(Pixel*Frame) : 0.182
Stream size : 3.38 GiB (89%)
Title : SubUrbia_1996_WEB-DL 720p_muxed_by_rjhlb777
Language : English
Default : Yes
Forced : No
Color primaries : BT.709-5, BT.1361, IEC 61966-2-4, SMPTE RP177
Transfer characteristics : BT.709-5, BT.1361
Matrix coefficients : BT.709-5, BT.1361, IEC 61966-2-4 709, SMPTE RP177
Audio #1
ID : 2
Format : AC-3
Format/Info : Audio Coding 3
Mode extension : CM (complete main)
Codec ID : A_AC3
Duration : 2h 1mn
Bit rate mode : Constant
Bit rate : 192 Kbps
Channel(s) : 2 channels
Channel positions : Front: L R
Sampling rate : 48.0 KHz
Bit depth : 16 bits
Compression mode : Lossy
Stream size : 166 MiB (4%)
Title : DVO
Language : Russian
Default : Yes
Forced : No
Audio #2
ID : 3
Format : AC-3
Format/Info : Audio Coding 3
Mode extension : CM (complete main)
Codec ID : A_AC3
Duration : 2h 1mn
Bit rate mode : Constant
Bit rate : 192 Kbps
Channel(s) : 2 channels
Channel positions : Front: L R
Sampling rate : 48.0 KHz
Bit depth : 16 bits
Compression mode : Lossy
Stream size : 166 MiB (4%)
Title : Original
Language : English
Default : No
Forced : No
Menu
00:00:00.000 : en:Chapter 1
00:10:00.000 : en:Chapter 2
00:20:01.000 : en:Chapter 3
00:30:01.000 : en:Chapter 4
00:40:02.000 : en:Chapter 5
00:50:03.000 : en:Chapter 6
01:00:03.000 : en:Chapter 7
01:10:04.000 : en:Chapter 8
01:20:04.000 : en:Chapter 9
01:30:05.000 : en:Chapter 10
01:40:06.000 : en:Chapter 11
01:50:06.000 : en:Chapter 12
Скорость раздачи маленькая 60-70 КБ/с, к сожалению.
Other forum [Profile] [PM]
Display posts from previous:    
Reply to topic

The time now is: Today 13:56

All times are GMT + 3 Hours



You cannot post new topics in this forum
You cannot reply to topics in this forum
You cannot edit your posts in this forum
You cannot delete your posts in this forum
You cannot vote in polls in this forum
You cannot attach files in this forum
You cannot download files in this forum