Today is a free download without charge Download

Весенние надежды / Hope Springs (Дэвид Фрэнкел / David Frankel) [2012, США, драма, мелодрама, комедия, BDRip 720p] Dub + Original + subs (rus, eng: full, SDH, comm)

Reply to topic
 
Author
Message

Omen ®

Longevity: 8 years 5 months

Posts: 181087

Торрент-статистика

Post 24-Feb-2013 21:32

[Quote]

Весенние надежды / Hope Springs- Год выпуска: 2012
Страна: США
Жанр: драма, мелодрама, комедия
Продолжительность: 01:39:53
Перевод: Профессиональный (полное дублирование)
Оригинальная звуковая дорожка: English
Cубтитры: Russian, English, English (SDH), English (commentary), French, Spain-Режиссер: Дэвид Фрэнкел / David Frankel
В ролях: Мэрил Стрип, Томми Ли Джонс, Стив Карелл, Джин Смарт, Бен Раппапорт, Марин Айрлэнд, Патрик Дарро, Бретт Райс, Бекки Энн Бэйкер, Элизабет Шу
Описание: Главные герои фильма — супружеская пара, находящаяся в браке более 30 лет и пытающаяся при помощи доктора Фелда, занимающегося проблемами семейных союзов, разжечь угасшие отношения.-Релиз: by AndrewPlacid
Формат: MKV
Видео: 1280x534 at 23.976 fps, [email protected], crf, ~7469 kbps avg
Аудио #1: Russian: 48 kHz, AC3, 3/2 (L,C,R,l,r) + LFE ch, ~640.00 kbps avg |Дубляж, Blu-Ray Rus|
Аудио #2: English: 48 kHz, AC3, 3/2 (L,C,R,l,r) + LFE ch, ~640.00 kbps avg
Аудио #3: English: 48 kHz, AC3, 2/0 (L,R) ch, ~192.00 kbps avg |Commentary|
Семпл-

Source~Encode





-

mInfo


Формат : Matroska
Версия формата : Version 2
Размер файла : 6,36 Гбайт
Продолжительность : 1 ч. 39 м.
Общий поток : 9123 Кбит/сек
Название фильма : Весенние надежды / Hope Springs (2012) - Release for HDCLUB
Дата кодирования : UTC 2013-02-23 19:18:21
Программа кодирования : mkvmerge v5.6.0 ('Kenya Kane') built on May 27 2012 16:44:04
Библиотека кодирования : libebml v1.2.3 + libmatroska v1.3.0
Видео
Идентификатор : 1
Формат : AVC
Формат/Информация : Advanced Video Codec
Профиль формата : [email protected]
Параметр CABAC формата : Да
Параметр ReFrames формата : 12 кадров
Идентификатор кодека : V_MPEG4/ISO/AVC
Продолжительность : 1 ч. 39 м.
Битрейт : 7469 Кбит/сек
Ширина : 1280 пикселей
Высота : 534 пикселя
Соотношение сторон : 2,40:1
Частота кадров : 23,976 кадра/сек
Цветовое пространство : YUV
Субдискретизация насыщенности : 4:2:0
Битовая глубина : 8 бит
Тип развёртки : Прогрессивная
Бит/(Пиксели*Кадры) : 0.456
Размер потока : 5,21 Гбайт (82%)
Заголовок : Release for HDCLUB
Библиотека кодирования : x264 core 128 r2216 198a7ea
Настройки программы : cabac=1 / ref=12 / deblock=1:-3:-3 / analyse=0x3:0x113 / me=tesa / subme=10 / psy=1 / psy_rd=1.00:0.00 / mixed_ref=1 / me_range=16 / chroma_me=1 / trellis=2 / 8x8dct=1 / cqm=0 / deadzone=21,11 / fast_pskip=0 / chroma_qp_offset=-2 / threads=12 / lookahead_threads=2 / sliced_threads=0 / nr=0 / decimate=0 / interlaced=0 / bluray_compat=0 / constrained_intra=0 / bframes=8 / b_pyramid=2 / b_adapt=2 / b_bias=0 / direct=3 / weightb=1 / open_gop=0 / weightp=2 / keyint=250 / keyint_min=23 / scenecut=40 / intra_refresh=0 / rc=crf / mbtree=0 / crf=14.0 / qcomp=0.60 / qpmin=0 / qpmax=69 / qpstep=4 / ip_ratio=1.40 / pb_ratio=1.30 / aq=1:0.55
Язык : English
Коэффициенты матрицы : BT.709-5, BT.1361, IEC 61966-2-4 709, SMPTE RP177
Аудио #1
Идентификатор : 2
Формат : AC-3
Формат/Информация : Audio Coding 3
Расширение режима : CM (complete main)
Идентификатор кодека : A_AC3
Продолжительность : 1 ч. 39 м.
Вид битрейта : Постоянный
Битрейт : 640 Кбит/сек
Каналы : 6 каналов
Расположение каналов : Front: L C R, Side: L R, LFE
Частота : 48,0 КГц
Битовая глубина : 16 бит
Метод сжатия : С потерями
Размер потока : 457 Мбайт (7%)
Заголовок : AC3 5.1ch 640 kbps - Дубляж
Язык : Russian
Аудио #2
Идентификатор : 3
Формат : AC-3
Формат/Информация : Audio Coding 3
Расширение режима : CM (complete main)
Идентификатор кодека : A_AC3
Продолжительность : 1 ч. 39 м.
Вид битрейта : Постоянный
Битрейт : 640 Кбит/сек
Каналы : 6 каналов
Расположение каналов : Front: L C R, Side: L R, LFE
Частота : 48,0 КГц
Битовая глубина : 16 бит
Метод сжатия : С потерями
Размер потока : 457 Мбайт (7%)
Заголовок : AC3 5.1ch 640 kbps
Язык : English
Аудио #3
Идентификатор : 4
Формат : AC-3
Формат/Информация : Audio Coding 3
Профиль формата : Dolby Digital
Расширение режима : CM (complete main)
Идентификатор кодека : A_AC3
Продолжительность : 1 ч. 39 м.
Вид битрейта : Постоянный
Битрейт : 192 Кбит/сек
Каналы : 2 канала
Расположение каналов : Front: L R
Частота : 48,0 КГц
Битовая глубина : 16 бит
Метод сжатия : С потерями
Размер потока : 137 Мбайт (2%)
Заголовок : Commentary 2.0 @ 192Kbps
Язык : English
Текст #1
Идентификатор : 5
Формат : UTF-8
Идентификатор кодека : S_TEXT/UTF8
Идентификатор кодека/Информация : UTF-8 Plain Text
Язык : Russian
Текст #2
Идентификатор : 6
Формат : UTF-8
Идентификатор кодека : S_TEXT/UTF8
Идентификатор кодека/Информация : UTF-8 Plain Text
Язык : English
Текст #3
Идентификатор : 7
Формат : UTF-8
Идентификатор кодека : S_TEXT/UTF8
Идентификатор кодека/Информация : UTF-8 Plain Text
Заголовок : SDH
Язык : English
Текст #4
Идентификатор : 8
Формат : UTF-8
Идентификатор кодека : S_TEXT/UTF8
Идентификатор кодека/Информация : UTF-8 Plain Text
Заголовок : Commentary
Язык : English
Текст #5
Идентификатор : 9
Формат : UTF-8
Идентификатор кодека : S_TEXT/UTF8
Идентификатор кодека/Информация : UTF-8 Plain Text
Язык : French
Текст #6
Идентификатор : 10
Формат : UTF-8
Идентификатор кодека : S_TEXT/UTF8
Идентификатор кодека/Информация : UTF-8 Plain Text
Язык : Spanish
Меню
00:00:00.000 : en:00:00:00.000
00:07:08.887 : en:00:07:08.887
00:13:29.017 : en:00:13:29.017
00:17:47.441 : en:00:17:47.441
00:24:03.275 : en:00:24:03.275
00:31:19.920 : en:00:31:19.920
00:36:56.756 : en:00:36:56.756
00:44:27.039 : en:00:44:27.039
00:52:50.626 : en:00:52:50.626
01:00:53.900 : en:01:00:53.900
01:07:27.710 : en:01:07:27.710
01:12:04.570 : en:01:12:04.570
01:15:24.311 : en:01:15:24.311
01:21:14.787 : en:01:21:14.787
01:27:12.644 : en:01:27:12.644
01:33:19.844 : en:01:33:19.844

-
Цитата:

*** Сохранены оригинальные чаптеры как на Blu-ray.
*** 7.1 дорога на русском BD раздута, задние и боковые тыловые каналы идентичны между собой, потому переделана в 5.1.
Other forum [Profile] [PM]
Display posts from previous:    
Reply to topic

The time now is: Today 22:42

All times are GMT + 3 Hours



You cannot post new topics in this forum
You cannot reply to topics in this forum
You cannot edit your posts in this forum
You cannot delete your posts in this forum
You cannot vote in polls in this forum
You cannot attach files in this forum
You cannot download files in this forum