Today is a free download without charge Download

Приказано уничтожить. Операция "Китайская шкатулка" / Серии: 01-04 из 04 (Сергей Бобров) [2009, Военный, драма, HDTV 1080i]

Reply to topic
 
Author
Message

Omen ®

Longevity: 9 years 1 month

Posts: 181086

Торрент-статистика

Post 23-Feb-2013 22:08

[Quote]

Приказано уничтожить. Операция "Китайская шкатулка"
Год выпуска: 2009
Производство: Талан
Жанр: Военный, драма
Продолжительность: ~ 00:45:00
Субтитры: Отсутствуют
Режиссёр: Сергей Бобров
В ролях: Константин Лавроненко, Михаил Ефремов, Валерий Золотухин, Геннадий Хазанов, Рената Литвинова, Андрей Смоляков, Сергей Баталов, Анна Казючиц, Кирилл Плетнев, Фёдор Добронравов, Нина Лощинина (Филимошкина), Иван Стебунов и другие.
Описание: 1943 год. Историко-шпионский боевик о покушении на жизнь Сталина в конце Второй мировой войны, подготовленного самыми высокопоставленными чинами из окружения Гитлера - Скорцени, Шелленберг, Краузе. Покушение тщательно спланировано и проводится в обстоятельствах абсолютной секретности. Кодовое название - "Китайская шкатулка". Убить Главнокомандующего советской армии Иосифа Сталина - такую задачу ставит Гитлер перед Армией Третьего Рейха. Агентов-убийц готовят к выполнению задания в специальной диверсионной школе. Здесь советские пленные солдаты используются как живой материал для обучения агентов немецкой разведки. Тренировку выдерживает только один из претендентов на особую роль в истории. Им оказывается беглый русский солдат Пётр Таврин. Тем временем, советской контрразведке "Смерш" становится известно о плане Гитлера. Создаётся специальная группа из лучших офицеров-разведчиков, которые должны не допустить, чтобы название "Китайская шкатулка" вошло в историю. За каждым из офицеров группы стоит человеческая судьба и свой опыт войны. Постепенно раскрывается вся шпионская сеть. Но чем больше разоблачений, тем больше загадок и тем ближе продвигается к Москве убийца. Но, идя по следу, выявив агентурную цепочку на пути в Москву, команда контрразведки всё-таки не может опередить агента-убийцу. Враг подчас предстаёт в самом неожиданном облике. Контрразведчики понимают, что причина невозможности опередить убийцу заключается во внедрении в их команду немецкого агента. Так под подозрением в измене родине оказываются все члены группы...
Сэмпл: http://multi-up.com/835047
Доп. информация: Релиз -

Рип чистый. Без посторонних надписей. Выкладывается как есть.
Качество: HDTV 1080i
Контейнер: TS
Видео кодек: AVC
Аудио кодек: AC3
Видео: 1920x1080 (16:9) 25.000 fps 7 833 Kbps, 0.151 bit/pixel
Аудио: MPEG Audio 48000Hz stereo 192 Кбит/сек

Скриншоты


MI

GeneralID : 1 (0x1)Complete name : N:\ВЫКЛАДКА\HDTV\Сериалы\Приказано уничтожить! Операция «Китайская шкатулка» (2009, Сериал, Боевик, HDTV) (MYDIMKA)\01 серия.tsFormat : MPEG-TSFile size : 2.60 GiBDuration : 44mn 8sOverall bit rate mode : VariableOverall bit rate : 8 444 Kbps
VideoID : 2911 (0xB5F)Menu ID : 1 (0x1)Format : AVCFormat/Info : Advanced Video CodecFormat profile : [email protected] settings, CABAC : YesFormat settings, ReFrames : 4 framesCodec ID : 27Duration : 44mn 9sBit rate : 7 833 KbpsWidth : 1 920 pixelsHeight : 1 080 pixelsDisplay aspect ratio : 16:9Frame rate : 25.000 fpsColor space : YUVChroma subsampling : 4:2:0Bit depth : 8 bitsScan type : MBAFFBits/(Pixel*Frame) : 0.151Stream size : 2.42 GiB (93%)
AudioID : 2912 (0xB60)Menu ID : 1 (0x1)Format : MPEG AudioFormat version : Version 1Format profile : Layer 2Codec ID : 3Duration : 44mn 8sBit rate mode : ConstantBit rate : 192 KbpsChannel(s) : 2 channelsSampling rate : 48.0 KHzCompression mode : LossyStream size : 60.6 MiB (2%)Language : Russian
Other forum [Profile] [PM]
Display posts from previous:    
Reply to topic

The time now is: Today 22:43

All times are GMT + 3 Hours



You cannot post new topics in this forum
You cannot reply to topics in this forum
You cannot edit your posts in this forum
You cannot delete your posts in this forum
You cannot vote in polls in this forum
You cannot attach files in this forum
You cannot download files in this forum