Today is a free download without charge Download

Отрава / Toxic (Алан Пао / Alan Pao) [2010, США, триллер, драма, BDRemux 1080p] DVO (HTB+) + VO + Original (Eng) + Subs (Eng)

Reply to topic
 
Author
Message

Omen ®

Longevity: 8 years 5 months

Posts: 181087

Торрент-статистика

Post 23-Feb-2013 22:08

[Quote]

Отрава / Toxic

-
-Страна: США
Студия: Wingman Productions Inc.
Жанр: триллер, драма
Год выпуска: 2010
Продолжительность: 01:31:36--Перевод 1: Профессиональный (двухголосый закадровый) HTB+
Перевод 2: Одноголосый закадровый
Cубтитры: английские
Оригинальная аудиодорожка: английский--Режиссер: Алан Пао / Alan Pao
В ролях: Том Сайзмор, Дэнни Трехо, Доминик Суэйн, Сьюзэн Уорд, Кори Лардж, Мастер Пи, Чарити Ши, Костас Мэндилор, Пол Йоханссон, Бай Лин--Описание: Том СайзЖизни владельца ночного клуба, криминального босса, стриптизерши, бармена, двух наемных убийц, проститутки и психиатра превращаются в кошмар, когда они сталкиваются со сбежавшим психопатом, который идет по своему зловещему пути безумия и разрушения.--imdb | kinopoisk | Сэмпл--Тип релиза: BDRemux 1080p [Toxic 2010 DUAL COMPLETE BLURAY-XORBiTANT]
Контейнер: MKV
Видео: MPEG-4 AVC / 25000 kbps / 1920x1080 / 23,976 fps / 16:9 / High Profile 4.1
Аудио 1: AC3 / 2.0 / 48 kHz / 192 kbps / 16 bits |DVO|
Аудио 2: AC3 / 2.0 / 48 kHz / 192 kbps / 16 bits |VO|
Аудио 3: DTS-HD Audio / 5.1 / 48 kHz / 2046 kbps / 16 bits (DTS Core: 5.1 / 48 kHz / 1510 kbps / 16 bits) |original|
Формат субтитров: softsub [SRT]

MediaInfo

ОбщееУникальный идентификатор : 183133683114363400024031672414392490058 (0x89C643B09BDF2D9D93309C95876B184A)Полное имя : G:\HD\Отрава.2010.Blu-Ray.Remux.(1080p).mkvФормат : MatroskaВерсия формата : Version 2Размер файла : 17,6 ГбайтПродолжительность : 1 ч. 31 м.Режим общего битрейта : ПеременныйОбщий поток : 27,4 Мбит/секДата кодирования : UTC 2013-02-23 17:55:43Программа кодирования : mkvmerge v5.8.0 ('No Sleep / Pillow') built on Sep 2 2012 15:37:04Библиотека кодирования : libebml v1.2.3 + libmatroska v1.3.0
ВидеоИдентификатор : 1Формат : AVCФормат/Информация : Advanced Video CodecПрофиль формата : [email protected]Параметр CABAC формата : ДаПараметр ReFrames формата : 4 кадраИдентификатор кодека : V_MPEG4/ISO/AVCПродолжительность : 1 ч. 31 м.Вид битрейта : ПеременныйБитрейт : 24,5 Мбит/секМаксимальный битрейт : 34,0 Мбит/секШирина : 1920 пикселейВысота : 1080 пикселейСоотношение сторон : 16:9Режим частоты кадров : ПостоянныйЧастота кадров : 23,976 кадра/секСтандарт вещания : NTSCЦветовое пространство : YUVСубдискретизация насыщенности : 4:2:0Битовая глубина : 8 битТип развёртки : ПрогрессивнаяБит/(Пиксели*Кадры) : 0.492Размер потока : 15,6 Гбайт (89%)Default : ДаForced : НетОсновные цвета : BT.709Характеристики трансфера : BT.709Коэффициенты матрицы : BT.709
Аудио #1Идентификатор : 2Формат : AC-3Формат/Информация : Audio Coding 3Расширение режима : CM (complete main)Параметр Endianness формата : BigИдентификатор кодека : A_AC3Продолжительность : 1 ч. 31 м.Вид битрейта : ПостоянныйБитрейт : 192 Кбит/секКаналы : 2 каналаРасположение каналов : Front: L RЧастота : 48,0 КГцБитовая глубина : 16 битМетод сжатия : С потерямиРазмер потока : 126 Мбайт (1%)Заголовок : DVO, HTB+Язык : RussianDefault : ДаForced : Нет
Аудио #2Идентификатор : 3Формат : AC-3Формат/Информация : Audio Coding 3Расширение режима : CM (complete main)Параметр Endianness формата : BigИдентификатор кодека : A_AC3Продолжительность : 1 ч. 31 м.Вид битрейта : ПостоянныйБитрейт : 192 Кбит/секКаналы : 2 каналаРасположение каналов : Front: L RЧастота : 48,0 КГцБитовая глубина : 16 битМетод сжатия : С потерямиРазмер потока : 126 Мбайт (1%)Заголовок : VOЯзык : RussianDefault : НетForced : Нет
Аудио #3Идентификатор : 4Формат : DTSФормат/Информация : Digital Theater SystemsПрофиль формата : HRA / CoreРежим : 16Параметр Endianness формата : BigИдентификатор кодека : A_DTSПродолжительность : 1 ч. 31 м.Вид битрейта : ПостоянныйБитрейт : 2046 Кбит/сек / 1509 Кбит/секКаналы : 6 каналовРасположение каналов : Front: L C R, Side: L R, LFEЧастота : 48,0 КГцБитовая глубина : 16 бит / 24 битМетод сжатия : С потерямиРазмер потока : 1,31 Гбайт (7%)Язык : EnglishDefault : НетForced : Нет
ТекстИдентификатор : 5Формат : UTF-8Идентификатор кодека : S_TEXT/UTF8Идентификатор кодека/Информация : UTF-8 Plain TextЯзык : EnglishDefault : НетForced : Нет
Меню00:00:00.000 : :Chapter 0100:11:49.041 : :Chapter 0200:20:49.039 : :Chapter 0300:28:05.350 : :Chapter 0400:36:58.007 : :Chapter 0500:44:31.168 : :Chapter 0600:53:56.983 : :Chapter 0700:57:37.954 : :Chapter 0801:08:07.917 : :Chapter 0901:15:48.961 : :Chapter 1001:22:51.967 : :Chapter 1101:26:46.951 : :Chapter 12

Скриншоты


Other forum [Profile] [PM]
Display posts from previous:    
Reply to topic

The time now is: Today 03:24

All times are GMT + 3 Hours



You cannot post new topics in this forum
You cannot reply to topics in this forum
You cannot edit your posts in this forum
You cannot delete your posts in this forum
You cannot vote in polls in this forum
You cannot attach files in this forum
You cannot download files in this forum