Today is a free download without charge Download

Asaf Avidan - Different Pulses & One Day(Live,France2 HD - Taratata,23.02.2013) [2013, indie, HDTV 1080i]

Reply to topic
 
Author
Message

Omen ®

Longevity: 8 years 4 months

Posts: 181087

Торрент-статистика

Post 23-Feb-2013 22:08

[Quote]

Asaf Avidan - Different Pulses & One Day(Live,France2 HD - Taratata,23.02.2013)- Жанр: indie
Продолжительность: 00:10:50
Год выпуска: 2013
Different Pulses - One Day/Reckoning SongКачество: HDTV 1080i
Контейнер: TS
Видео кодек: H.264
Аудио кодек: AC3
Видео: H.264; 1920x1080; 7 337 Kbps ; 25.000 fps
Аудио: AC-3; 384 Kbps; 48.0 KHz; 2 ch

Отчёт MediaInfo

Complete name : Asaf Avidan - Different Pulses & One Day.tsFormat : MPEG-TSFile size : 630 MiBDuration : 10mn 50sOverall bit rate mode : VariableOverall bit rate : 8 126 Kbps
VideoID : 521 (0x209)Menu ID : 302 (0x12E)Format : AVCFormat/Info : Advanced Video CodecFormat profile : [email protected] settings, CABAC : YesFormat settings, ReFrames : 3 framesCodec ID : 27Duration : 10mn 50sBit rate : 7 337 KbpsWidth : 1 920 pixelsHeight : 1 080 pixelsDisplay aspect ratio : 16:9Frame rate : 25.000 fpsStandard : ComponentColor space : YUVChroma subsampling : 4:2:0Bit depth : 8 bitsScan type : InterlacedScan order : Top Field FirstBits/(Pixel*Frame) : 0.142Stream size : 568 MiB (90%)Color primaries : BT.601 PALTransfer characteristics : BT.470 System B, BT.470 System GMatrix coefficients : BT.601
AudioID : 522 (0x20A)Menu ID : 302 (0x12E)Format : AC-3Format/Info : Audio Coding 3Mode extension : CM (complete main)Format settings, Endianness : BigCodec ID : 6Duration : 10mn 49sBit rate mode : ConstantBit rate : 384 KbpsChannel(s) : 2 channelsChannel positions : Front: L RSampling rate : 48.0 KHzBit depth : 16 bitsCompression mode : LossyDelay relative to video : 67msStream size : 29.8 MiB (5%)Language : French

Скриншоты

Other forum [Profile] [PM]
Display posts from previous:    
Reply to topic

The time now is: Today 13:13

All times are GMT + 3 Hours



You cannot post new topics in this forum
You cannot reply to topics in this forum
You cannot edit your posts in this forum
You cannot delete your posts in this forum
You cannot vote in polls in this forum
You cannot attach files in this forum
You cannot download files in this forum