Сегодня идет свободное скачивание без начисления Download

Небесный тихоход (Цветная версия) (1945) TVRip

Ответить на тему
 
Автор
Сообщение

UndegraundMen ®

Стаж: 5 лет 7 месяцев

Сообщений: 25860

Торрент-статистика

Пост 23-Фев-2013 15:00

[Цитировать]

-Небесный тихоход (Цветная версия) (1945) TVRip- Русское название: Небесный тихоход
Год выпуска: 1945
Жанр: Военный, Комедия
Описание фильма:
Три друга, летчики-офицеры, поклялись не любить до конца войны. Однако военная служба познакомила из с летчицами женской эскадрильи. И друзья один за другим начали сдавать свои позиции. После тяжелого ранения летчик Булочкин вынужден летать не на скоростном истребителе, а на «тихоходе» У-2. Привыкший к опасностям Булочкин с трудом привыкает к спокойной жизни в эскадрилье, где большинство летчиков — девушки. Но вскоре становится ясно, что на войне важны и «тихоходы»...
Режиссер: Семен Тимошенко
Актеры: Николай Крючков, Фаина Раневская, Людмила Глазова, Василий Меркурьев, Алла Парфаньяк, Тамара Алешина, Василий Нещипленко, Яков Гудкин, Константин Скоробогатов, Семен Тимошенко
Продолжительность: 01:19:05
Видеокодек: DivX
Битрейт видео: ~1899 Кбит/с
Размер кадра: 704x448
Качество видео: TVRip
Аудиокодек: MP3
Битрейт аудио: 2 ch, 192 Кбит/с

Info:

Complete name : D:\Исторические\Небесный тихоход.avi
Format : AVI
Format/Info : Audio Video Interleave
Format profile : OpenDML
Format settings : rec
File size : 1.15 GiB
Duration : 1h 19mn
Overall bit rate : 2 085 Kbps
Writing application : AVI-Mux GUI 1.17.8.3, Feb 16 201019:42:50
Video
ID : 0
Format : MPEG-4 Visual
Format settings, BVOP : 1
Format settings, QPel : No
Format settings, GMC : No warppoints
Format settings, Matrix : Default (H.263)
Muxing mode : Packed bitstream
Codec ID : DX50
Codec ID/Hint : DivX 5
Duration : 1h 19mn
Bit rate : 1 889 Kbps
Width : 704 pixels
Height : 448 pixels
Display aspect ratio : 1.571
Frame rate : 25.000 fps
Color space : YUV
Chroma subsampling : 4:2:0
Bit depth : 8 bits
Scan type : Progressive
Compression mode : Lossy
Bits/(Pixel*Frame) : 0.240
Stream size : 1.04 GiB (91%)
Writing library : DivX 6.8.5 (UTC 2009-08-20)
Audio
ID : 1
Format : MPEG Audio
Format version : Version 1
Format profile : Layer 3
Mode : Joint stereo
Codec ID : 55
Codec ID/Hint : MP3
Duration : 1h 19mn
Bit rate mode : Constant
Bit rate : 192 Kbps
Channel(s) : 2 channels
Sampling rate : 48.0 KHz
Compression mode : Lossy
Stream size : 109 MiB (9%)
Alignment : Aligned on interleaves
Interleave, duration : 423 ms (10.58 video frames)
Interleave, preload duration : 216 ms
Скриншоты:
             
Время раздачи: с 17-23
Вне форума [Профиль] [ЛС]
Показать сообщения:    
Ответить на тему

Текущее время: Сегодня 03:59

Часовой пояс: GMT + 3



Вы не можете начинать темы
Вы не можете отвечать на сообщения
Вы не можете редактировать свои сообщения
Вы не можете удалять свои сообщения
Вы не можете голосовать в опросах
Вы не можете прикреплять файлы к сообщениям
Вы не можете скачивать файлы