Today is a free download without charge Download

Зимний вальс / Серии: 1-4 из 4 (Вадим Арапов, Вячеслав Падалка) [2013, мелодрама, DVB]

Reply to topic
 
Author
Message

Omen ®

Longevity: 9 years

Posts: 181086

Торрент-статистика

Post 23-Feb-2013 12:08

[Quote]

Зимний вальс
Год выпуска: 2013
Производство: Кинокомпания "Студия Паламеда"
Жанр: мелодрама
Продолжительность: ~0:45:00 серия
Субтитры: отсутствуют
Режиссёр: Вадим Арапов, Вячеслав Падалка
В ролях: Анна Полупанова, Дмитрий Орлов, Алёна Ивченко, Елена Дубровская, Олег Вебер, Анна Носатова, Святослав Астрамович
Описание: У Анны хорошая работа, любящий муж и прекрасная дочка. Но все рушится в одно мгновенье, когда ей переходит дорогу лучшая подруга. С работы Анну с треском увольняют, муж уходит, и кажется, что ей, оставшейся одной с маленькой дочерью, помощи ждать неоткуда.
Не все благополучно и в семье Владимира, подполковника в отставке. Но невзгоды и предательства не ломают героев. И их случайная встреча дает надежду на хоть и позднюю, но такую настоящую любовь.
Релиз: -Сэмпл-Качество: DVB (Express MD1 at 80.0°E)
Формат: MPEG-PS
Видео кодек: MPEG2
Аудио кодек: MP2
Видео: MPEG 2, 720x576 (4:3), 25.000 fps, 5350 Kbps (0.516 bit/pixel)
Аудио: MP2, 48.0 KHz, 2 ch, 256 Kbps, CBR

MediaInfo

ОбщееПолное имя : L:\Раздачи\Зимний вальс\Зимний вальс.01.mpgФормат : MPEG-PSРазмер файла : 1,79 ГбайтПродолжительность : 44 м.Режим общего битрейта : ПеременныйОбщий поток : 5720 Кбит/секБиблиотека кодирования : (c) 1998-2012 Womble Multimedia, Inc. / MPEG Video Wizard DVD 5.0.1.100 (03/2011) / Sep 7 2012
ВидеоИдентификатор : 224 (0xE0)Формат : MPEG VideoВерсия формата : Version 2Профиль формата : [email protected]Параметр BVOP формата : ДаПараметр матрицы формата : ВыборочнаяПараметр GOP формата : VariableПродолжительность : 44 м.Вид битрейта : ПеременныйБитрейт : 5350 Кбит/секМаксимальный битрейт : 15,0 Мбит/секШирина : 720 пикселейВысота : 576 пикселейСоотношение сторон : 4:3Частота кадров : 25,000 кадров/секСтандарт вещания : PALЦветовое пространство : YUVСубдискретизация насыщенности : 4:2:0Битовая глубина : 8 битТип развёртки : ЧересстрочнаяПорядок развёртки : Верхнее поле первоеМетод сжатия : С потерямиБит/(Пиксели*Кадры) : 0.516Размер потока : 1,68 Гбайт (94%)Выравнивание : (c) 1998-2012 Womble Multimedia, Inc. / MPEG Video Wizard DVD 5.0.1.100 (03/2011) / Sep 7 2012Заголовок : (c) 1998-2012 Womble Multimedia, Inc. / MPEG Video Wizard DVD 5.0.1.100 (03/2011) / Sep 7 2012Библиотека кодирования : (c) 1998-2012 Womble Multimedia, Inc. / MPEG Video Wizard DVD 5.0.1.100 (03/2011) / Sep 7 2012
АудиоИдентификатор : 192 (0xC0)Формат : MPEG AudioВерсия формата : Version 1Профиль формата : Layer 2Продолжительность : 44 м.Вид битрейта : ПостоянныйБитрейт : 256 Кбит/секКаналы : 2 каналаЧастота : 48,0 КГцМетод сжатия : С потерямиЗадержка видео : -80 мс.Размер потока : 82,2 Мбайт (4%)
Меню

Скриншоты


Other forum [Profile] [PM]
Display posts from previous:    
Reply to topic

The time now is: Today 17:20

All times are GMT + 3 Hours



You cannot post new topics in this forum
You cannot reply to topics in this forum
You cannot edit your posts in this forum
You cannot delete your posts in this forum
You cannot vote in polls in this forum
You cannot attach files in this forum
You cannot download files in this forum