Today is a free download without charge Download

Вампирши / Vamps (Эми Хекерлинг / Amy Heckerling) [2012, США, ужасы, мелодрама, комедия, BDRip 1080p] VO + Original Eng

Reply to topic
 
Author
Message

Omen ®

Longevity: 8 years 5 months

Posts: 181087

Торрент-статистика

Post 23-Feb-2013 12:08

[Quote]

Вампирши / Vamps
Страна: США
Жанр: ужасы, мелодрама, комедия
Год выпуска: 2012
Продолжительность: 01:32:38
Перевод: Одноголосый закадровый
Cубтитры: нет
Оригинальная аудиодорожка: английский
Режиссер: Эми Хекерлинг / Amy Heckerling
В ролях: Алисия Сильверстоун, Кристен Риттер, Дэн Стивенс, Ричард Льюис, Сигурни Уивер, Уоллес Шоун, Джастин Кирк, Малкольм МакДауэлл, Зак Орт, Мэрилу Хеннер
Описание: Две сексуальные современные вампирши живут в свое удовольствие среди нью-йоркской ночной тусовки до тех пор, пока любовь не встречается на их пути и не ставит под угрозу их бессмертие.
Семпл
Тип релиза: BDRip 1080p
Контейнер: MKV
Видео кодек: MPEG 4 AVC (H.264)
Аудио кодек: ACЗ, DTS
Видео: 1920*1040, 23.976 fps, 8 626 Kbps
Аудио: AC-3, 384 Kbps, 6Сh, 44.1 KHz-одноголосный любительский
Аудио 2: DTS, 1509 Kbps, 6Сh, 48 KHz

MediaInfo

Complete name : G:\vamps-1080 (RG AVI-AVC).mkv
Format : Matroska
Format version : Version 2
File size : 6.81 GiB
Duration : 1h 32mn
Overall bit rate : 10.5 Mbps
Encoded date : UTC 2013-02-23 08:16:48
Writing application : mkvmerge v5.5.0 ('Healer') built on Apr 6 2012 21:43:24
Writing library : libebml v1.2.3 + libmatroska v1.3.0
Video
ID : 1
Format : AVC
Format/Info : Advanced Video Codec
Format profile : [email protected]
Format settings, CABAC : Yes
Format settings, ReFrames : 4 frames
Codec ID : V_MPEG4/ISO/AVC
Duration : 1h 32mn
Bit rate : 8 626 Kbps
Width : 1 920 pixels
Height : 1 040 pixels
Display aspect ratio : 1.85:1
Frame rate mode : Constant
Frame rate : 23.976 fps
Color space : YUV
Chroma subsampling : 4:2:0
Bit depth : 8 bits
Scan type : Progressive
Bits/(Pixel*Frame) : 0.180
Stream size : 5.45 GiB (80%)
Writing library : x264 core 128 r2216 198a7ea
Encoding settings : cabac=1 / ref=4 / deblock=1:0:0 / analyse=0x3:0x133 / me=umh / subme=7 / psy=1 / psy_rd=1.00:0.00 / mixed_ref=1 / me_range=16 / chroma_me=1 / trellis=1 / 8x8dct=1 / cqm=0 / deadzone=21,11 / fast_pskip=0 / chroma_qp_offset=-2 / threads=6 / lookahead_threads=1 / sliced_threads=0 / nr=0 / decimate=1 / interlaced=0 / bluray_compat=0 / constrained_intra=0 / bframes=3 / b_pyramid=2 / b_adapt=2 / b_bias=0 / direct=3 / weightb=1 / open_gop=0 / weightp=2 / keyint=250 / keyint_min=23 / scenecut=40 / intra_refresh=0 / rc_lookahead=50 / rc=2pass / mbtree=1 / bitrate=8626 / ratetol=1.0 / qcomp=0.60 / qpmin=0 / qpmax=69 / qpstep=4 / cplxblur=20.0 / qblur=0.5 / ip_ratio=1.40 / aq=1:1.00
Language : English
Default : No
Forced : No
Audio #1
ID : 2
Format : AC-3
Format/Info : Audio Coding 3
Mode extension : CM (complete main)
Format settings, Endianness : Big
Codec ID : A_AC3
Duration : 1h 32mn
Bit rate mode : Constant
Bit rate : 384 Kbps
Channel(s) : 6 channels
Channel positions : Front: L C R, Side: L R, LFE
Sampling rate : 44.1 KHz
Bit depth : 16 bits
Compression mode : Lossy
Stream size : 254 MiB (4%)
Language : Russian
Default : Yes
Forced : No
Audio #2
ID : 3
Format : DTS
Format/Info : Digital Theater Systems
Mode : 16
Format settings, Endianness : Big
Codec ID : A_DTS
Duration : 1h 32mn
Bit rate mode : Constant
Bit rate : 1 509 Kbps
Channel(s) : 6 channels
Channel positions : Front: L C R, Side: L R, LFE
Sampling rate : 48.0 KHz
Bit depth : 24 bits
Compression mode : Lossy
Stream size : 1 000 MiB (14%)
Language : English
Default : No
Forced : No

Скриншоты

Other forum [Profile] [PM]
Display posts from previous:    
Reply to topic

The time now is: Today 11:27

All times are GMT + 3 Hours



You cannot post new topics in this forum
You cannot reply to topics in this forum
You cannot edit your posts in this forum
You cannot delete your posts in this forum
You cannot vote in polls in this forum
You cannot attach files in this forum
You cannot download files in this forum