Today is a free download without charge Download

Любовь с препятствиями / Un bonheur n'arrive jamais seul (Джеймс Хат / James Huth) [2012, Франция, комедия, мелодрама, BDRip 720p] Dub + Sub Eng,Fre + Original Fre

Reply to topic
 
Author
Message

Omen ®

Longevity: 8 years 5 months

Posts: 181087

Торрент-статистика

Post 23-Feb-2013 12:08

[Quote]

Любовь с препятствиями / Un bonheur n'arrive jamais seul
Страна: Франция
Жанр: комедия, мелодрама
Год выпуска: 2012
Продолжительность: 01:49:14
Перевод: Профессиональный (дублированный)
Cубтитры: английские, французские
Оригинальная аудиодорожка: французский
Режиссер: Джеймс Хат / James Huth
В ролях: Софи Марсо, Гад Эльмалех, Морис Бартелеми, Франсуа Берлеан, Майкл Абитебул, Джули-Энн Рот, Маша Мериль, Франсуа Винчентелли
Описание: Саша живет беззаботной и легкомысленной жизнью в окружении красивых девушек, друзей и музыки. Шарлота уже дважды успела побывать замужем и больше не собирается повторять своих ошибок. Хотя, как знать. Может, у судьбы свои планы?

Тип релиза: BDRip 720p (EbP)
Контейнер: MKV
Видео: MPEG-4 AVC, 1198x720, 6472 кбит/сек, 24.00 fps
Аудио: 48 kHz, AC3 Dolby Digital, 3/2 (L,C,R,l,r) + LFE ch, ~640 kbps DUB
Аудио 2: 48 kHz, AC3 Dolby Digital, 3/2 (L,C,R,l,r) + LFE ch, ~640 kbps original
Формат субтитров: softsub (SRT)

MediaInfo

ЛЮБОВЬ С ПРЕПЯТСТВИЯМИ (DUB) 2012 720p BluRay x264-lord_i_74.mkv
Формат : Matroska
Версия формата : Version 2
Размер файла : 6,03 Гбайт
Продолжительность : 1 ч. 49 м.
Общий поток : 7909 Кбит/сек
Дата кодирования : UTC 2013-02-23 05:18:40
Программа кодирования : mkvmerge v5.0.1 ('Es ist Sommer') built on Oct 9 2011 11:55:43
Библиотека кодирования : libebml v1.2.2 + libmatroska v1.3.0
Видео
Идентификатор : 1
Формат : AVC
Формат/Информация : Advanced Video Codec
Профиль формата : [email protected]
Параметр CABAC формата : Да
Параметр ReFrames формата : 9 кадров
Идентификатор кодека : V_MPEG4/ISO/AVC
Продолжительность : 1 ч. 49 м.
Битрейт : 6472 Кбит/сек
Ширина : 1198 пикс.
Высота : 720 пикс.
Соотношение сторон : 1,664
Частота кадров : 24,000 кадр/сек
Цветовое пространство : YUV
Подвыборка цветности : 4:2:0
Битовая глубина : 8 бит
Тип развёртки : Прогрессивная
Бит/(Пиксели*Кадры) : 0.313
Размер потока : 4,94 Гбайт (82%)
Заголовок : Happiness.Never.Comes.Alone.2012.720p.BluRay.x264-EbP
Библиотека кодирования : x264 core 128 r2216 198a7ea
Настройки программы : cabac=1 / ref=9 / deblock=1:-3:-3 / analyse=0x3:0x113 / me=tesa / subme=9 / psy=1 / psy_rd=0.90:0.00 / mixed_ref=1 / me_range=16 / chroma_me=1 / trellis=2 / 8x8dct=1 / cqm=0 / deadzone=21,11 / fast_pskip=0 / chroma_qp_offset=-2 / threads=12 / lookahead_threads=2 / sliced_threads=0 / nr=0 / decimate=0 / interlaced=0 / bluray_compat=0 / constrained_intra=0 / bframes=7 / b_pyramid=2 / b_adapt=2 / b_bias=0 / direct=3 / weightb=1 / open_gop=0 / weightp=2 / keyint=250 / keyint_min=24 / scenecut=40 / intra_refresh=0 / rc=crf / mbtree=0 / crf=16.5 / qcomp=0.75 / qpmin=0 / qpmax=69 / qpstep=4 / ip_ratio=1.40 / pb_ratio=1.30 / aq=1:0.75
Язык : French
Коэффициенты матрицы : BT.709-5, BT.1361, IEC 61966-2-4 709, SMPTE RP177
Аудио #1
Идентификатор : 2
Формат : AC-3
Формат/Информация : Audio Coding 3
Расширение режима : CM (complete main)
Идентификатор кодека : A_AC3
Продолжительность : 1 ч. 49 м.
Вид битрейта : Постоянный
Битрейт : 640 Кбит/сек
Каналы : 6 каналов
Расположение каналов : Front: L C R, Side: L R, LFE
Частота : 48,0 КГц
Битовая глубина : 16 бит
Метод сжатия : С потерями
Размер потока : 500 Мбайт (8%)
Заголовок : DUB BluRay CEE
Язык : Russian
Аудио #2
Идентификатор : 3
Формат : AC-3
Формат/Информация : Audio Coding 3
Расширение режима : CM (complete main)
Идентификатор кодека : A_AC3
Продолжительность : 1 ч. 49 м.
Вид битрейта : Постоянный
Битрейт : 640 Кбит/сек
Каналы : 6 каналов
Расположение каналов : Front: L C R, Side: L R, LFE
Частота : 48,0 КГц
Битовая глубина : 16 бит
Метод сжатия : С потерями
Размер потока : 500 Мбайт (8%)
Заголовок : AC3 [email protected]
Язык : French
Текст #1
Идентификатор : 4
Формат : UTF-8
Идентификатор кодека : S_TEXT/UTF8
Идентификатор кодека/Информация : UTF-8 Plain Text
Заголовок : English
Язык : English
Текст #2
Идентификатор : 5
Формат : UTF-8
Идентификатор кодека : S_TEXT/UTF8
Идентификатор кодека/Информация : UTF-8 Plain Text
Заголовок : French
Язык : French
Меню
00:00:00.000 : en:00:00:00.000
00:07:18.917 : en:00:07:18.917
00:17:29.750 : en:00:17:29.750
00:22:52.042 : en:00:22:52.042
00:38:06.250 : en:00:38:06.250
00:49:20.708 : en:00:49:20.708
00:57:10.083 : en:00:57:10.083
01:06:38.583 : en:01:06:38.583
01:16:07.000 : en:01:16:07.000
01:24:05.125 : en:01:24:05.125
01:35:34.958 : en:01:35:34.958
01:45:05.958 : en:01:45:05.958

Скриншоты

Other forum [Profile] [PM]
Similar theme
Forum Topic Author Torrent Replies Last Post
./templates/default/images/folder_dl.gif Обучающая и научно-популярная литература Димитрий Семеник | Наполни жизнь любовью [2010] [MP3] Omen
1 | 0

0 | 2098

6

2013-01-14 21:04
Omen Latest
./templates/default/images/folder_dl.gif Техническая и научно-популярная литература Вадим Долгов | Потаенная жизнь Древней Руси. Быт, нравы, любовь [2009] [FB2] Omen
0 | 1

0 | 572

1

2013-04-30 18:33
Omen Latest
Display posts from previous:    
Reply to topic

The time now is: Today 19:56

All times are GMT + 3 Hours



You cannot post new topics in this forum
You cannot reply to topics in this forum
You cannot edit your posts in this forum
You cannot delete your posts in this forum
You cannot vote in polls in this forum
You cannot attach files in this forum
You cannot download files in this forum