Today is a free download without charge Download

Хорошо быть тихоней / The Perks of Being a Wallflower (Стивен Чбоски / Stephen Chbosky) [2012, США, драма, мелодрама, BDRip 1080p] Dub + 3xSub (Rus, Eng) + Original Eng

Reply to topic
 
Author
Message

Omen ®

Longevity: 8 years 5 months

Posts: 181087

Торрент-статистика

Post 23-Feb-2013 12:08

[Quote]

Хорошо быть тихоней / The Perks of Being a Wallflower
Страна: США
Жанр: драма, мелодрама
Год выпуска: 2012
Продолжительность: 01:42:37
Перевод: Профессиональный (дублированный) Blu-Ray
Cубтитры: русские (2 вида), английские
Оригинальная аудиодорожка: английский
-
Режиссер: Стивен Чбоски / Stephen Chbosky
В ролях: Логан Лерман, Эмма Уотсон, Эзра Миллер, Дилан МакДермотт, Кейт Уолш, Патрик Де Ледебур, Джонни Симмонс, Брайан Балзерини, Том Крушевски, Нина Добрев
-
Описание: История о Чарли, первокурснике в Питтсбурге, стеснительном и непопулярном. Затрагиваются темы насилия, подросткового секса, переходного возраста, наркотиков и суицида, внимание акцентируется на дилемме пассивности и страсти. На наших глазах Чарли взрослеет, меняется круг его общения, меняется его мнение о мире.

Тип релиза: BDRip 1080p
Контейнер: MKV
Видео: H264 / NTSC 16:9 / 1920x1080 (1,78:1) / 14848 kbps / 23,976 fps / 0.299 bit/pixel / [email protected]
Аудио 1: Russian / DTS / 48 kHz / 5.1 Ch / 1510 kbps / 24 bit / DUB
Аудио 2: English / DTS / 48 kHz / 5.1 Ch / 1510 kbps / 24 bit / Original
Аудио 3: English / AC3 / 48 kHz / 2 Ch / 224 kbps / 16 bit / Commentary #1
Аудио 4: English / AC3 / 48 kHz / 2 Ch / 224 kbps / 16 bit / Commentary #2
Формат субтитров: softsub (SRT)
Навигация по главам: есть

MediaInfo

Общее
Уникальный идентификатор : 216630697464151062991342142580843828799 (0xA2F98E019A8A18639D5E31B0EF97563F)
Полное имя : W:\BDRip 1080p\The Perks of Being a Wallflower.2012.BDRip.1080p.mkv
Формат : Matroska
Версия формата : Version 4 / Version 2
Размер файла : 13,1 Гбайт
Продолжительность : 1 ч. 42 м.
Общий поток : 18,3 Мбит/сек
Дата кодирования : UTC 2013-02-23 06:12:09
Программа кодирования : mkvmerge v6.0.0 ('Coming Up For Air') built on Jan 20 2013 09:52:00
Библиотека кодирования : libebml v1.3.0 + libmatroska v1.4.0
Видео
Идентификатор : 1
Формат : AVC
Формат/Информация : Advanced Video Codec
Профиль формата : [email protected]
Параметр CABAC формата : Да
Параметр ReFrames формата : 4 кадра
Идентификатор кодека : V_MPEG4/ISO/AVC
Битрейт : 14,8 Мбит/сек
Ширина : 1920 пикселей
Высота : 1080 пикселей
Соотношение сторон : 16:9
Режим частоты кадров : Переменный
Частота кадров в оригинале : 23,976 кадра/сек
Цветовое пространство : YUV
Субдискретизация насыщенности : 4:2:0
Битовая глубина : 8 бит
Тип развёртки : Прогрессивная
Бит/(Пиксели*Кадры) : 0.299
Библиотека кодирования : x264 core 129 r2245 bc13772
Настройки программы : cabac=1 / ref=4 / deblock=1:-3:-3 / analyse=0x3:0x113 / me=umh / subme=11 / psy=1 / psy_rd=1.00:0.08 / mixed_ref=1 / me_range=56 / chroma_me=1 / trellis=2 / 8x8dct=1 / cqm=0 / deadzone=21,11 / fast_pskip=0 / chroma_qp_offset=-3 / threads=18 / lookahead_threads=3 / sliced_threads=0 / nr=0 / decimate=1 / interlaced=0 / bluray_compat=0 / constrained_intra=0 / bframes=8 / b_pyramid=2 / b_adapt=2 / b_bias=0 / direct=3 / weightb=1 / open_gop=0 / weightp=2 / keyint=240 / keyint_min=23 / scenecut=40 / intra_refresh=0 / rc_lookahead=180 / rc=2pass / mbtree=1 / bitrate=14848 / ratetol=1.0 / qcomp=0.60 / qpmin=0 / qpmax=69 / qpstep=4 / cplxblur=20.0 / qblur=0.5 / vbv_maxrate=50000 / vbv_bufsize=40000 / nal_hrd=none / ip_ratio=1.40 / aq=1:1.00
Язык : English
Default : Да
Forced : Нет
Основные цвета : BT.709
Характеристики трансфера : BT.709
Коэффициенты матрицы : BT.709
Аудио #1
Идентификатор : 2
Формат : DTS
Формат/Информация : Digital Theater Systems
Идентификатор кодека : A_DTS
Продолжительность : 1 ч. 42 м.
Вид битрейта : Постоянный
Битрейт : 1510 Кбит/сек
Каналы : 6 каналов
Расположение каналов : Front: L C R, Side: L R, LFE
Частота : 48,0 КГц
Битовая глубина : 24 бит
Метод сжатия : С потерями
Размер потока : 1,08 Гбайт (8%)
Заголовок : RUS / Дубляж / Blu-Ray
Язык : Russian
Default : Да
Forced : Нет
Аудио #2
Идентификатор : 3
Формат : DTS
Формат/Информация : Digital Theater Systems
Идентификатор кодека : A_DTS
Продолжительность : 1 ч. 42 м.
Вид битрейта : Постоянный
Битрейт : 1510 Кбит/сек
Каналы : 6 каналов
Расположение каналов : Front: L C R, Side: L R, LFE
Частота : 48,0 КГц
Битовая глубина : 24 бит
Метод сжатия : С потерями
Размер потока : 1,08 Гбайт (8%)
Заголовок : Original
Язык : English
Default : Нет
Forced : Нет
Аудио #3
Идентификатор : 7
Формат : AC-3
Формат/Информация : Audio Coding 3
Расширение режима : CM (complete main)
Параметр Endianness формата : Big
Идентификатор кодека : A_AC3
Продолжительность : 1 ч. 42 м.
Вид битрейта : Постоянный
Битрейт : 224 Кбит/сек
Каналы : 2 канала
Расположение каналов : Front: L R
Частота : 48,0 КГц
Битовая глубина : 16 бит
Метод сжатия : С потерями
Размер потока : 164 Мбайт (1%)
Заголовок : Commentary #1
Язык : English
Default : Нет
Forced : Нет
Аудио #4
Идентификатор : 8
Формат : AC-3
Формат/Информация : Audio Coding 3
Расширение режима : CM (complete main)
Параметр Endianness формата : Big
Идентификатор кодека : A_AC3
Продолжительность : 1 ч. 42 м.
Вид битрейта : Постоянный
Битрейт : 224 Кбит/сек
Каналы : 2 канала
Расположение каналов : Front: L R
Частота : 48,0 КГц
Битовая глубина : 16 бит
Метод сжатия : С потерями
Размер потока : 164 Мбайт (1%)
Заголовок : Commentary #2
Язык : English
Default : Нет
Forced : Нет
Текст #1
Идентификатор : 4
Формат : UTF-8
Идентификатор кодека : S_TEXT/UTF8
Идентификатор кодека/Информация : UTF-8 Plain Text
Заголовок : Дубляж / Blu-Ray
Язык : Russian
Default : Нет
Forced : Нет
Текст #2
Идентификатор : 5
Формат : UTF-8
Идентификатор кодека : S_TEXT/UTF8
Идентификатор кодека/Информация : UTF-8 Plain Text
Заголовок : Notabenoid
Язык : Russian
Default : Нет
Forced : Нет
Текст #3
Идентификатор : 6
Формат : UTF-8
Идентификатор кодека : S_TEXT/UTF8
Идентификатор кодека/Информация : UTF-8 Plain Text
Заголовок : Original
Язык : English
Default : Нет
Forced : Нет
Меню
00:00:00.000 : en:CHAPTER01
00:05:04.387 : en:CHAPTER02
00:10:24.624 : en:CHAPTER03
00:17:06.984 : en:CHAPTER04
00:21:38.005 : en:CHAPTER05
00:28:31.501 : en:CHAPTER06
00:33:09.070 : en:CHAPTER07
00:39:55.351 : en:CHAPTER08
00:47:17.001 : en:CHAPTER09
00:54:38.859 : en:CHAPTER10
00:58:15.951 : en:CHAPTER11
01:03:17.961 : en:CHAPTER12
01:10:13.126 : en:CHAPTER13
01:18:31.790 : en:CHAPTER14
01:23:11.612 : en:CHAPTER15
01:31:12.384 : en:CHAPTER16

Скриншоты

Other forum [Profile] [PM]
Similar theme
Forum Topic Author Torrent Replies Last Post
./templates/default/images/folder_dl.gif Фильмы Кому всунешь, ту и чпокнешь (Сергей Логинов / Кинокомпания «Клубничка») [2010 г., Feature, Anal Sex, Russian Girls, DVDRip] (Оля Захарова, Таня Легенда, Злата Козак, Тася Кошечкина, Лида Хорошева, Злата Пинки, Лена Нимфа, Гуля Мамедова, Е. Скворцова) Anonymous
0 | 1

0 | 10301

120

2017-04-01 20:24
Anonymous Latest
Display posts from previous:    
Reply to topic

The time now is: Today 11:15

All times are GMT + 3 Hours



You cannot post new topics in this forum
You cannot reply to topics in this forum
You cannot edit your posts in this forum
You cannot delete your posts in this forum
You cannot vote in polls in this forum
You cannot attach files in this forum
You cannot download files in this forum