Today is a free download without charge Download

Stone Sour - Live Club Nokia (2013) [2013, Nu-Metal, HDTV 720p]

Reply to topic
 
Author
Message

Omen ®

Longevity: 8 years 4 months

Posts: 181087

Торрент-статистика

Post 23-Feb-2013 12:08

[Quote]

Stone Sour - Live Club Nokia (2013)
Жанр: Nu-Metal
Продолжительность: 01:16:50
Год выпуска: 2013
Описание: Полная запись выступления Stone Sour в club Nokia в поддержку альбома House of Gold and Bones part 1
Сетлист:
01. Gone Sovereign
02. Absolute Zero
03. Mission Statement
04. Hell & Consequences
05. Made of Scars
06. A Rumor of Skin
07. Reborn
08. Do Me a Favor
09. RU486
10. Say You'll Haunt Me
11. Bother (Prior to Alice in Chains' Nutshell First Verse & Chorus)
12. Through Glass
13. The Travelers, Pt. 2
14. Last of the Real
15. 30/30-150
Качество: HDTV 720p
Контейнер: MKV
Видео кодек: H.264
Аудио кодек: AC3
Видео: H.264, 1280x720, 6 388 kbps, 16:9, 29.970 fps
Аудио: AC3, 384kbps, 48kHz, 5.1ch.

Отчёт MediaInfo / BDInfo

GeneralUnique ID : 207612565303971014864582344855014693221 (0x9C30B9C33714345199246FF60D2D5965)Complete name : F:\Видео\Stone.Sour.Club.Nokia.2013-02-13.x264.720p.mkvFormat : MatroskaFormat version : Version 2File size : 3.71 GiBDuration : 1h 16mnOverall bit rate : 6 910 KbpsEncoded date : UTC 2013-02-19 14:52:49Writing application : mkvmerge v3.3.0 ('Language') сборка от May 14 2010 17:11:50Writing library : Lavf52.94.0
VideoID : 1Format : AVCFormat/Info : Advanced Video CodecFormat profile : [email protected] settings, CABAC : YesFormat settings, ReFrames : 2 framesCodec ID : V_MPEG4/ISO/AVCDuration : 1h 16mnBit rate : 6 388 KbpsWidth : 1 280 pixelsHeight : 720 pixelsDisplay aspect ratio : 16:9Frame rate mode : VariableFrame rate : 29.970 fpsColor space : YUVChroma subsampling : 4:2:0Bit depth : 8 bitsScan type : ProgressiveBits/(Pixel*Frame) : 0.231Stream size : 3.43 GiB (92%)Default : NoForced : No
AudioID : 2Format : AC-3Format/Info : Audio Coding 3Mode extension : CM (complete main)Codec ID : A_AC3Duration : 1h 16mnBit rate mode : ConstantBit rate : 384 KbpsChannel(s) : 6 channelsChannel positions : Front: L C R, Side: L R, LFESampling rate : 48.0 KHzBit depth : 16 bitsCompression mode : LossyDelay relative to video : 21msStream size : 211 MiB (6%)Default : NoForced : No

Скриншоты







Other forum [Profile] [PM]
Display posts from previous:    
Reply to topic

The time now is: Today 13:27

All times are GMT + 3 Hours



You cannot post new topics in this forum
You cannot reply to topics in this forum
You cannot edit your posts in this forum
You cannot delete your posts in this forum
You cannot vote in polls in this forum
You cannot attach files in this forum
You cannot download files in this forum