Today is a free download without charge Download

Где-то во времени / Somewhere in Time (Жаннот Шварц / Jeannot Szwarc) [1980, США, фэнтези, драма, мелодрама, WEB-DL 720p] AVO (Вадим Белов) + MVO (ОРТ) + Original Eng

Reply to topic
 
Author
Message

Omen ®

Longevity: 8 years 5 months

Posts: 181087

Торрент-статистика

Post 23-Feb-2013 07:24

[Quote]

Где-то во времени / Somewhere in Time
Страна: США
Студия: Rastar Pictures
Жанр: фэнтези, драма, мелодрама
Год выпуска: 1980
Продолжительность: 01:43:26
Перевод 1: Авторский (одноголосый закадровый) - Вадим Белов
Перевод 2: Профессиональный (многоголосый закадровый) - ОРТ
Cубтитры: нет
Оригинальная аудиодорожка: английский
Режиссер: Жаннот Шварц / Jeannot Szwarc
В ролях: Кристофер Рив, Джейн Сеймур, Кристофер Пламмер, Тереза Райт, Билл Эрвин, Джордж Восковек, Сьюзэн Френч, Джон Элвин, Эддра Гэйл, Одри Беннетт.
Описание: Молодой Чикагский драматург Ричард неожиданно получает от неизвестной пожилой дамы старинные часы и призыв «Вернись ко мне», но не придаёт этому никакого значения. Через несколько лет он случайно находит фотографию актрисы Элис МакКена сделанную в 1912 году и понимает, что это именно та женщина от которой восемь лет назад он получил часы. Используя теорию о путешествиях во времени посредством самогипноза, Ричард встречается с ней лицом к лицу…
Доп. информация: Somewhere.In.Time.1980.720p.WEB-DL.H264-BS [PublicHD] взял в сети.


Тип релиза: WEB-DL 720p
Контейнер: MKV
Видео: x264, 1280x686, 1.866:1, 23.976 fps, 4 201 kbit/s, Progressive, 0.200 Bits/(Pixel*Frame)
Аудио 1: AC-3, 48 KHz, 2 ch, 192 Kbps Русский - Вадим Белов
Аудио 2: AC-3, 48 KHz, 2 ch, 192 Kbps Русский - ОРТ
Аудио 3: AC-3, 48 KHz, 2 ch, 192 Kbps Английский - Original

MediaInfo

General
Unique ID : 236589551553339862200555122574897561171 (0xB1FD7D7CDE01C9968CD99BD7EB71BE53)
Complete name :Somewhere in Time_1980_WEB-DL 720p.mkv
Format : Matroska
Format version : Version 4 / Version 2
File size : 3.52 GiB
Duration : 1h 43mn
Overall bit rate : 4 874 Kbps
Encoded date : UTC 2013-02-22 21:31:09
Writing application : mkvmerge v6.0.0 ('Coming Up For Air') built on Jan 20 2013 09:52:00
Writing library : libebml v1.3.0 + libmatroska v1.4.0
Video
ID : 1
Format : AVC
Format/Info : Advanced Video Codec
Format profile : [email protected]
Format settings, CABAC : No
Format settings, ReFrames : 2 frames
Codec ID : V_MPEG4/ISO/AVC
Duration : 1h 43mn
Bit rate : 4 201 Kbps
Width : 1 280 pixels
Height : 686 pixels
Display aspect ratio : 1.866
Frame rate : 23.976 fps
Color space : YUV
Chroma subsampling : 4:2:0
Bit depth : 8 bits
Scan type : Progressive
Bits/(Pixel*Frame) : 0.200
Stream size : 3.04 GiB (86%)
Title : Somewhere in Time_1980_WEB-DL 720p_muxed_by_rjhlb777
Language : English
Default : Yes
Forced : No
Color primaries : BT.709-5, BT.1361, IEC 61966-2-4, SMPTE RP177
Transfer characteristics : BT.709-5, BT.1361
Matrix coefficients : BT.709-5, BT.1361, IEC 61966-2-4 709, SMPTE RP177
Audio #1
ID : 2
Format : AC-3
Format/Info : Audio Coding 3
Mode extension : CM (complete main)
Codec ID : A_AC3
Duration : 1h 43mn
Bit rate mode : Constant
Bit rate : 192 Kbps
Channel(s) : 2 channels
Channel positions : Front: L R
Sampling rate : 48.0 KHz
Bit depth : 16 bits
Compression mode : Lossy
Stream size : 142 MiB (4%)
Title : AVO_Vadim Belov
Language : Russian
Default : Yes
Forced : No
Audio #2
ID : 3
Format : AC-3
Format/Info : Audio Coding 3
Mode extension : CM (complete main)
Codec ID : A_AC3
Duration : 1h 43mn
Bit rate mode : Constant
Bit rate : 192 Kbps
Channel(s) : 2 channels
Channel positions : Front: L R
Sampling rate : 48.0 KHz
Bit depth : 16 bits
Compression mode : Lossy
Stream size : 142 MiB (4%)
Title : MVO_OPT
Language : Russian
Default : No
Forced : No
Audio #3
ID : 4
Format : AC-3
Format/Info : Audio Coding 3
Mode extension : CM (complete main)
Codec ID : A_AC3
Duration : 1h 43mn
Bit rate mode : Constant
Bit rate : 192 Kbps
Channel(s) : 2 channels
Channel positions : Front: L R
Sampling rate : 48.0 KHz
Bit depth : 16 bits
Compression mode : Lossy
Stream size : 142 MiB (4%)
Title : Original
Language : English
Default : No
Forced : No
Menu
00:00:00.000 : en:Opening Credits / Come Back To Me
00:04:16.000 : en:Grand Hotel
00:10:33.000 : en:A Face For The Ages
00:18:11.000 : en:A Haunting Melody
00:22:08.000 : en:Teaching Time Travel
00:25:53.000 : en:Historically Hysterical
00:33:00.000 : en:Ahead To The Past
00:37:51.000 : en:Desperately Seeking Elise
00:44:30.000 : en:Meeting Again - For The First Time
00:54:00.000 : en:The Bodyguard
00:59:40.000 : en:Making Up For Lost Time
01:11:49.000 : en:Theater Improv
01:17:20.000 : en:The Wrath Of Robinson
01:23:55.000 : en:Time For Love
01:31:34.000 : en:Back To The Future
01:38:05.000 : en:Heavenly Reunion / End Credits
Other forum [Profile] [PM]
Display posts from previous:    
Reply to topic

The time now is: Today 06:35

All times are GMT + 3 Hours



You cannot post new topics in this forum
You cannot reply to topics in this forum
You cannot edit your posts in this forum
You cannot delete your posts in this forum
You cannot vote in polls in this forum
You cannot attach files in this forum
You cannot download files in this forum