Today is a free download without charge Download

Жизнь и приключения Мишки Япончика (Однажды в Одессе) / Серии: 1-12 из 12 /(Сергей Гинзбург) [2011, авантюрная мелодрама, WEBRip 1080p]

Reply to topic
 
Author
Message

Omen ®

Longevity: 9 years

Posts: 181086

Торрент-статистика

Post 22-Feb-2013 22:16

[Quote]

Жизнь и приключения Мишки Япончика (Однажды в Одессе)
Год выпуска: 2011
Производство: Россия, Star Media
Жанр: авантюрная мелодрама
Продолжительность: ~00:50:00
Режиссёр: Сергей Гинзбург
В ролях: В ролях:Евгений Ткачук, Елена Шамова, Валентин Гафт, Римма Маркова, Всеволод Шиловский, Владимир Долинский, Алексей Филимонов, Вадим Норштейн, Илья Лыков, Игорь Арташонов, Артем Ткаченко, Александр Лазарев-младший, Игорь Савочкин, Сергей Марин, Олег Школьник, Ирина Токарчук, Валерий Бассэль, Екатерина Копанова, Яна Поплавская, Андрей Ургант, Александр Ильин, Павел Прилучный, Михаил Богдасаров, Владимир Гусев, Сергей Романович, Александр Карпов, Константин Самоуков, Анатолий Кот, Артем Осипов, Кирилл Полухин, Алексей Гаврилов, Сабина Миллер
Описание: Мишка Япончик (Мойша Винницкий, прототип Бени Крика из «Одесских рассказов» Бабеля) – не просто обычный налетчик с одесским колоритом. Стать королем воров, держать в страхе весь город, и одновременно быть народным любимцем мог только человек неординарный. Его популярность колоссальна - в нем видят «робин гуда», который радеет за народ, он утверждает свой «кодекс налетчика» - бедняков не грабить, не трогать врачей, юристов, артистов. Его налеты становятся все более артистичными и остроумными, это маленькие спектакли. Миша расчетлив, рационален, но у него широкая душа: он закатывает пиры для всей Молдаванки, снабжает деньгами безработных грузчиков, помогает деньгами и продуктами молодоженам, сиротам, бездомным и даже семьям жертв бандитских налетов.
Он пробыл Королем всего три года – с 1917 по 1919-й. Это были три самые яркие года из жизни Япончика, переполненные событиями, на которые у других не хватило бы целой жизни. Восхождение на вершину бандитской иерархии, дерзкие налеты, романтизм и великодушие. А еще - любовь к красавице Циле и свадьба, на которой гуляла вся Одесса. И еще один роман – с анархисткой Лизой, напросившейся к нему в налетчицы, и прошедшей с ним весь путь.
Сэмпл: http://multi-up.com/834537
Качество: WEBRip 1080p
Формат: MKV
Видео кодек: H.264
Аудио кодек: AAC
Видео:
MPEG4 Video (H264) 1904x1072 25fps 4000kbps 0.077bit/pixel - 1,4,8 серии
MPEG4 Video (H264) 1920x1072 25fps 4000kbps 0.077bit/pixel - 2,3,5,6,12 серии
MPEG4 Video (H264) 1920x1080 25fps 4000kbps 0.077bit/pixel - 7,10,11 серии
MPEG4 Video (H264) 1920x1082 25fps 4000kbps 0.077bit/pixel - 9 серия
Аудио: AAC 44100Hz stereo 192kbps

MI

Общее
Полное имя : D:\МОИ РАЗДАЧИ\Сериалы HD\Жизнь и приключения Мишки Япончика (Однажды в Одессе)\Жизнь и приключения Мишки Япончика (Однажды в Одессе)_hd1080p\Жизнь и приключения Мишки Япончика (Однажды в Одессе)_hd1080p_01.mkv
Формат : MPEG-4
Профиль формата : Base Media
Идентификатор кодека : isom
Размер файла : 1,53 Гбайт
Продолжительность : 52 м.
Общий поток : 4195 Кбит/сек
Программа кодирования : Lavf54.22.104
Видео
Идентификатор : 1
Формат : AVC
Формат/Информация : Advanced Video Codec
Профиль формата : [email protected]
Параметр CABAC формата : Да
Параметр ReFrames формата : 3 кадра
Идентификатор кодека : avc1
Идентификатор кодека/Информация : Advanced Video Coding
Продолжительность : 52 м.
Битрейт : 4000 Кбит/сек
Ширина : 1904 пикселя
Высота : 1072 пикселя
Соотношение сторон : 16:9
Режим частоты кадров : Постоянный
Частота кадров : 25,000 кадров/сек
Цветовое пространство : YUV
Субдискретизация насыщенности : 4:2:0
Битовая глубина : 8 бит
Тип развёртки : Прогрессивная
Бит/(Пиксели*Кадры) : 0.078
Размер потока : 1,46 Гбайт (95%)
Библиотека кодирования : x264 core 120
Настройки программы : cabac=1 / ref=3 / deblock=1:0:0 / analyse=0x3:0x133 / me=umh / subme=7 / psy=1 / psy_rd=1.00:0.00 / mixed_ref=1 / me_range=32 / chroma_me=1 / trellis=2 / 8x8dct=1 / cqm=0 / deadzone=21,11 / fast_pskip=1 / chroma_qp_offset=-2 / threads=12 / sliced_threads=0 / nr=0 / decimate=1 / interlaced=0 / bluray_compat=0 / constrained_intra=0 / bframes=0 / weightp=0 / keyint=100 / keyint_min=50 / scenecut=40 / intra_refresh=0 / rc_lookahead=50 / rc=2pass / mbtree=0 / bitrate=4000 / ratetol=1.0 / qcomp=0.20 / qpmin=10 / qpmax=51 / qpstep=4 / cplxblur=20.0 / qblur=0.5 / vbv_maxrate=5000 / vbv_bufsize=5000 / nal_hrd=none / ip_ratio=1.40 / aq=1:1.00
Основные цвета : BT.709
Характеристики трансфера : BT.709
Коэффициенты матрицы : BT.709
Аудио
Идентификатор : 2
Формат : AAC
Формат/Информация : Advanced Audio Codec
Профиль формата : LC
Идентификатор кодека : 40
Продолжительность : 52 м.
Вид битрейта : Постоянный
Битрейт : 192 Кбит/сек
Каналы : 2 канала
Расположение каналов : Front: L R
Частота : 44,1 КГц
Метод сжатия : С потерями
Размер потока : 70,4 Мбайт (5%)

Скриншоты










Other forum [Profile] [PM]
Similar theme
Forum Topic Author Torrent Replies Last Post
./templates/default/images/folder_dl.gif Обучающая и научно-популярная литература Димитрий Семеник | Наполни жизнь любовью [2010] [MP3] Omen
1 | 0

0 | 1948

6

2013-01-14 21:04
Omen Latest
./templates/default/images/folder_dl.gif Психология, Тренинг, Саморазвитие Айше Берсел | Жизнь как конструктор. Выдели главное, убери лишнее и создай жизнь, которая тебя вдохновляет (2016) [PDF] }{@R0N
1 | 0

0 | 1834

5

2017-02-16 19:36
}{@R0N Latest
Display posts from previous:    
Reply to topic

The time now is: Today 18:06

All times are GMT + 3 Hours



You cannot post new topics in this forum
You cannot reply to topics in this forum
You cannot edit your posts in this forum
You cannot delete your posts in this forum
You cannot vote in polls in this forum
You cannot attach files in this forum
You cannot download files in this forum