Today is a free download without charge Download

На цепи / Chained (Дженнифер Чэмберс Линч / Jennifer Chambers Lynch) [2012, США, триллер, BDRip 720p] MVO ("Baibako") + VO (den904) + Sub (Rus, Eng) + Original (Eng)

Reply to topic
 
Author
Message

Omen ®

Longevity: 8 years 5 months

Posts: 181087

Торрент-статистика

Post 22-Feb-2013 22:16

[Quote]

На цепи / Chained Страна: США
Жанр: триллер
Год выпуска: 2012
Продолжительность: 01:34:11
Перевод 1: Многоголосый закадровый "Baibako" (4 голоса)
Перевод 2: Одноголосый закадровый den904 по субтитрам Janetta
Cубтитры: русские от Groby, английские (+SDH)
Режиссер: Дженнифер Чэмберс Линч / Jennifer Chambers Lynch
В ролях: Винсент Д’Онофрио, Имон Фэррен, Ивэн Бёрд, Джулия Ормонд, Конор Лесли, Джейк Уэбер, Джина Филипс
Описание:Фильм «На цепи» изначально расскажет нам о матери и её восьмилетнем сыне, которые на свою беду садятся в такси к водителю, оказавшемуся невменяемым.
Боб (В. Д’Онофрио) - водитель такси и серийный убийца - безжалостно преследует свою добычу на городских улицах. Мать, в исполнении Джулии Ормонд, становится его очередной жертвой, а её сын переходит под неоднозначную опеку маньяка. Отныне мальчик должен хоронить тела убитых Бобом женщин и во всём слушаться его.
Сможет ли юный герой фильма сделать правильный выбор и вырваться из лап своего похитителя? Увидим в конце
...
IMDB: 6.2/10
Сэмпл: sample.mkv
Исходник: Chained 2012 1080p ITA Blu-ray AVC DTS-HD MA 5.1
Тип релиза: BDRip 720p (EbP)
Контейнер: MKV
Видео: MPEG-4 AVC / 1280x534 / 4500 kbps / 23.976 fps / 16:9 / High Profile 4.1
Аудио 1: Русский / DTS / 5.1 / 48 kHz / 1510 kbps / 24-bit (MVO) от ARTYq
Аудио 2: Русский / DTS / 5.1 / 48 kHz / 1510 kbps / 24-bit (VO)
Аудио 3: Английский / DTS / 5.1 / 48 kHz / 1510 kbps / 24-bit (Original)
Формат субтитров: подключаемые (SRT)
Навигация по главам: естьТоррент перезалит 23.02.13. Добавлена многоголосая озвучка "Baibako".

x264 Info

x264 [info]: frame I:1019 Avg QP:11.38 size:115032
x264 [info]: frame P:28276 Avg QP:13.65 size: 44861
x264 [info]: frame B:106190 Avg QP:15.90 size: 16860
x264 [info]: consecutive B-frames: 1.9% 2.0% 7.3% 17.6% 11.6% 47.8% 9.9% 0.9% 0.2% 0.8%
x264 [info]: mb I I16..4: 4.6% 79.5% 15.9%
x264 [info]: mb P I16..4: 1.0% 13.8% 1.4% P16..4: 26.9% 34.3% 17.2% 0.0% 0.0% skip: 5.4%
x264 [info]: mb B I16..4: 0.1% 1.7% 0.1% B16..8: 31.0% 21.9% 5.1% direct:10.2% skip:29.9% L0:41.5% L1:43.1% BI:15.4%
x264 [info]: 8x8 transform intra:85.5% inter:51.7%
x264 [info]: direct mvs spatial:99.3% temporal:0.7%
x264 [info]: coded y,uvDC,uvAC intra: 88.2% 90.3% 80.7% inter: 36.4% 38.3% 24.5%
x264 [info]: i16 v,h,dc,p: 36% 12% 7% 45%
x264 [info]: i8 v,h,dc,ddl,ddr,vr,hd,vl,hu: 13% 11% 12% 8% 11% 11% 11% 11% 13%
x264 [info]: i4 v,h,dc,ddl,ddr,vr,hd,vl,hu: 18% 12% 11% 7% 12% 11% 10% 9% 11%
x264 [info]: i8c dc,h,v,p: 49% 24% 14% 13%
x264 [info]: Weighted P-Frames: Y:5.3% UV:2.7%
x264 [info]: ref P L0: 43.1% 7.3% 18.5% 7.1% 6.3% 4.2% 4.1% 2.2% 2.2% 1.7% 1.8% 1.5% 0.2% 0.0%
x264 [info]: ref B L0: 81.2% 9.2% 3.4% 1.8% 1.2% 1.0% 0.8% 0.5% 0.5% 0.3% 0.2%
x264 [info]: ref B L1: 95.2% 4.8%
x264 [info]: kb/s:4496.42
encoded 135485 frames, 5.96 fps, 4496.42 kb/s

MediaInfo

General
Unique ID : 216480791979883031915902884116475680104 (0xA2DCAF18632C3502A46C070086AC1568)
Complete name : D:\Chained.2012.2xRus.Eng.720p.BluRay.mkv
Format : Matroska
Format version : Version 2
File size : 5.94 GiB
Duration : 1h 34mn
Overall bit rate : 9 028 Kbps
Movie name : На цепи / Chained (2012)
Encoded date : UTC 2013-02-21 15:44:05
Writing application : mkvmerge v5.8.0 ('No Sleep / Pillow') built on Sep 2 2012 15:37:04
Writing library : libebml v1.2.3 + libmatroska v1.3.0
Video
ID : 1
Format : AVC
Format/Info : Advanced Video Codec
Format profile : [email protected]
Format settings, CABAC : Yes
Format settings, ReFrames : 12 frames
Codec ID : V_MPEG4/ISO/AVC
Duration : 1h 34mn
Bit rate : 4 319 Kbps
Width : 1 280 pixels
Height : 534 pixels
Display aspect ratio : 2.40:1
Frame rate mode : Constant
Frame rate : 23.976 fps
Color space : YUV
Chroma subsampling : 4:2:0
Bit depth : 8 bits
Scan type : Progressive
Bits/(Pixel*Frame) : 0.264
Stream size : 2.84 GiB (48%)
Title : [email protected]
Language : Italian
Default : Yes
Forced : No
Audio #1
ID : 2
Format : DTS
Format/Info : Digital Theater Systems
Codec ID : A_DTS
Duration : 1h 34mn
Bit rate mode : Constant
Bit rate : 1 510 Kbps
Channel(s) : 6 channels
Channel positions : Front: L C R, Side: L R, LFE
Sampling rate : 48.0 KHz
Bit depth : 24 bits
Compression mode : Lossy
Stream size : 1 017 MiB (17%)
Title : MVO "Baibako"
Language : Russian
Default : Yes
Forced : No
Audio #2
ID : 3
Format : DTS
Format/Info : Digital Theater Systems
Codec ID : A_DTS
Duration : 1h 34mn
Bit rate mode : Constant
Bit rate : 1 510 Kbps
Channel(s) : 6 channels
Channel positions : Front: L C R, Side: L R, LFE
Sampling rate : 48.0 KHz
Bit depth : 24 bits
Compression mode : Lossy
Stream size : 1 017 MiB (17%)
Title : VO den904 (по субтитрам Janetta)
Language : Russian
Default : No
Forced : No
Audio #3
ID : 4
Format : DTS
Format/Info : Digital Theater Systems
Codec ID : A_DTS
Duration : 1h 34mn
Bit rate mode : Constant
Bit rate : 1 510 Kbps
Channel(s) : 6 channels
Channel positions : Front: L C R, Side: L R, LFE
Sampling rate : 48.0 KHz
Bit depth : 24 bits
Compression mode : Lossy
Stream size : 1 017 MiB (17%)
Title : Original
Language : English
Default : No
Forced : No
Text #1
ID : 5
Format : UTF-8
Codec ID : S_TEXT/UTF8
Codec ID/Info : UTF-8 Plain Text
Title : Russian by Groby
Language : Russian
Default : No
Forced : No
Text #2
ID : 6
Format : UTF-8
Codec ID : S_TEXT/UTF8
Codec ID/Info : UTF-8 Plain Text
Title : English
Language : English
Default : No
Forced : No
Text #3
ID : 7
Format : UTF-8
Codec ID : S_TEXT/UTF8
Codec ID/Info : UTF-8 Plain Text
Title : English SDH
Language : English
Default : No
Forced : No
Menu
00:00:00.000 : en:00:00:00.000
00:02:29.483 : en:00:02:29.483
00:07:33.453 : en:00:07:33.453
00:11:40.658 : en:00:11:40.658
00:16:04.839 : en:00:16:04.839
00:20:46.537 : en:00:20:46.537
00:22:52.037 : en:00:22:52.037
00:29:29.017 : en:00:29:29.017
00:33:36.765 : en:00:33:36.765
00:38:38.233 : en:00:38:38.233
00:42:57.116 : en:00:42:57.116
00:48:34.995 : en:00:48:34.995
00:53:30.165 : en:00:53:30.165
00:57:40.791 : en:00:57:40.791
01:01:51.666 : en:01:01:51.666
01:07:20.912 : en:01:07:20.912
01:12:53.911 : en:01:12:53.911
01:18:32.958 : en:01:18:32.958
01:24:15.133 : en:01:24:15.133
01:31:25.814 : en:01:31:25.814

Скриншоты



Скриншоты сравнения рипов BRMP vs EbP





Other forum [Profile] [PM]
Display posts from previous:    
Reply to topic

The time now is: Today 05:19

All times are GMT + 3 Hours



You cannot post new topics in this forum
You cannot reply to topics in this forum
You cannot edit your posts in this forum
You cannot delete your posts in this forum
You cannot vote in polls in this forum
You cannot attach files in this forum
You cannot download files in this forum