Today is a free download without charge Download

Громовержец и Виннету / Winnetou und sein Freund Old Firehand (Альфред Форер / Alfred Vohrer) [1966, Германия (ФРГ), Югославия, приключения, вестерн, BDRip 720p] MVO + Original Ger + Eng Dub + sub

Reply to topic
 
Author
Message

Omen ®

Longevity: 8 years 5 months

Posts: 181087

Торрент-статистика

Post 22-Feb-2013 17:40

[Quote]

Громовержец и Виннету / Winnetou und sein Freund Old Firehand- Год выпуска: 1966
Страна: Германия (ФРГ), Югославия
Жанр: приключения, вестерн
Продолжительность: 01:34:25
Перевод: Профессиональный (многоголосый, закадровый)
Оригинальная звуковая дорожка: German
Cубтитры: German-Режиссер: Альфред Форер / Alfred Vohrer
В ролях: Пьер Брис, Род Камерон, Мари Верзини, Тодд Армстронг, Харальд Лайпниц, Надя Грей, Walter Wilz, Йорг Марквардт, Рик Батталья, Viktor de Kowa
Описание: Комендант приграничного городка Мирамонте захватил и посадил в тюрьму брата главаря банды Сайлера. Узнав об этом, Сайлер грозит сравнять город с землей, если его брат не будет выпущен на свободу. Знаменитый охотник Громовержец и вождь апачей Виннету помогают защитить город и отбить нападение бандитов.-Релиз: by delia
Формат: MKV
Видео: 1280x544 at 23.976 fps, [email protected], ~9701 kbps avg
Аудио #1: Russian: 48 kHz, AC3, 2/0 (L,R) ch, ~192.00 kbps avg |Многоголосый, закадровый|
Аудио #2: German: 48 kHz, DTS, 2.0 ch, ~768 kbps avg
Аудио #3: English: 48 kHz, DTS, 2.0 ch, ~768 kbps avg
Семпл-

-

mInfo


Формат : Matroska
Версия формата : Version 4 / Version 2
Размер файла : 7,38 Гбайт
Продолжительность : 1 ч. 34 м.
Общий поток : 11,2 Мбит/сек
Дата кодирования : UTC 2013-02-22 10:09:18
Программа кодирования : mkvmerge v6.0.0 ('Coming Up For Air') built on Jan 20 2013 09:52:00
Библиотека кодирования : libebml v1.3.0 + libmatroska v1.4.0
Видео
Идентификатор : 1
Формат : AVC
Формат/Информация : Advanced Video Codec
Профиль формата : [email protected]
Параметр CABAC формата : Да
Параметр ReFrames формата : 12 кадров
Идентификатор кодека : V_MPEG4/ISO/AVC
Продолжительность : 1 ч. 34 м.
Битрейт : 9268 Кбит/сек
Ширина : 1280 пикселей
Высота : 544 пикселя
Соотношение сторон : 2,35:1
Частота кадров : 23,976 кадра/сек
Цветовое пространство : YUV
Субдискретизация насыщенности : 4:2:0
Битовая глубина : 8 бит
Тип развёртки : Прогрессивная
Бит/(Пиксели*Кадры) : 0.555
Размер потока : 6,11 Гбайт (83%)
Библиотека кодирования : x264 core 129 r2245kMod bc13772
Настройки программы : cabac=1 / ref=12 / deblock=1:-3:-3 / analyse=0x3:0x113 / me=esa / subme=10 / psy=1 / fade_compensate=0.00 / psy_rd=1.00:0.00 / mixed_ref=1 / me_range=48 / chroma_me=1 / trellis=2 / 8x8dct=1 / cqm=0 / deadzone=21,11 / fast_pskip=1 / chroma_qp_offset=-2 / threads=6 / lookahead_threads=1 / sliced_threads=0 / nr=0 / decimate=1 / interlaced=0 / bluray_compat=0 / constrained_intra=0 / bframes=10 / b_pyramid=2 / b_adapt=2 / b_bias=0 / direct=3 / weightb=1 / open_gop=0 / weightp=2 / keyint=240 / keyint_min=23 / scenecut=40 / intra_refresh=0 / rc_lookahead=40 / rc=crf / mbtree=0 / crf=16.4000 / qcomp=0.70 / qpmin=5 / qpmax=51 / qpstep=4 / vbv_maxrate=50000 / vbv_bufsize=62500 / crf_max=0.0 / nal_hrd=none / ip_ratio=1.40 / pb_ratio=1.30 / aq=3:0.80
Язык : English
Коэффициенты матрицы : BT.709-5, BT.1361, IEC 61966-2-4 709, SMPTE RP177
Аудио #1
Идентификатор : 2
Формат : AC-3
Формат/Информация : Audio Coding 3
Профиль формата : Dolby Digital
Расширение режима : CM (complete main)
Идентификатор кодека : A_AC3
Продолжительность : 1 ч. 34 м.
Вид битрейта : Постоянный
Битрейт : 192 Кбит/сек
Каналы : 2 канала
Расположение каналов : Front: L R
Частота : 48,0 КГц
Битовая глубина : 16 бит
Метод сжатия : С потерями
Размер потока : 130 Мбайт (2%)
Язык : Russian
Аудио #2
Идентификатор : 3
Формат : DTS
Формат/Информация : Digital Theater Systems
Идентификатор кодека : A_DTS
Продолжительность : 1 ч. 34 м.
Вид битрейта : Постоянный
Битрейт : 755 Кбит/сек
Каналы : 2 канала
Расположение каналов : Front: L R
Частота : 48,0 КГц
Битовая глубина : 16 бит
Метод сжатия : С потерями
Размер потока : 510 Мбайт (7%)
Язык : German
Аудио #3
Идентификатор : 4
Формат : DTS
Формат/Информация : Digital Theater Systems
Идентификатор кодека : A_DTS
Продолжительность : 1 ч. 34 м.
Вид битрейта : Постоянный
Битрейт : 755 Кбит/сек
Каналы : 2 канала
Расположение каналов : Front: L R
Частота : 48,0 КГц
Битовая глубина : 16 бит
Метод сжатия : С потерями
Размер потока : 510 Мбайт (7%)
Язык : English
Текст
Идентификатор : 5
Формат : UTF-8
Идентификатор кодека : S_TEXT/UTF8
Идентификатор кодека/Информация : UTF-8 Plain Text
Язык : German
Меню
00:00:00.000 : en:00:00:00.000
00:08:39.477 : en:00:08:39.477
00:20:42.532 : en:00:20:42.532
00:31:01.442 : en:00:31:01.442
00:41:45.544 : en:00:41:45.544
00:53:59.861 : en:00:53:59.861
00:59:52.588 : en:00:59:52.588
01:09:46.055 : en:01:09:46.055
01:19:24.509 : en:01:19:24.509
01:29:21.439 : en:01:29:21.439

-
Цитата:

*** Сохранены оригинальные чаптеры как на Blu-ray.
Other forum [Profile] [PM]
Display posts from previous:    
Reply to topic

The time now is: Today 10:01

All times are GMT + 3 Hours



You cannot post new topics in this forum
You cannot reply to topics in this forum
You cannot edit your posts in this forum
You cannot delete your posts in this forum
You cannot vote in polls in this forum
You cannot attach files in this forum
You cannot download files in this forum