Today is a free download without charge Download

Приключения кота Леопольда (1975 - 1987) HDRip

Reply to topic
 
Author
Message

Varius ®

Gender:

Longevity: 11 years

Posts: 2428

Location: Hell

Торрент-статистика

Post 30-May-2011 04:59

[Quote]

Приключения кота Леопольда- «Ребята, давайте жить дружно.»-Русское название: Приключения кота Леопольда
Год выпуска: 1975, 1981, 1982, 1983, 1984, 1986, 1987
Выпущено: СССР / "Lizard Cinema Trade"
Жанр: мультфильм
Перевод: Оригинальный [лицензия]
Субтитры: Отсутствуют

Дата выхода DVD релиза: 16 декабря 2008, «Lizard Cinema Trade»
Режиссер: З. Сараева, Анатолий Резников
Актеры: Александр Калягин, Геннадий Хазанов, Андрей Миронов
Описание фильма:
Доброму коту Леопольду, постоянно досаждают две мышки, требующие взаимности...
Список мультфильмов:
"Месть кота Леопольда" (1975 г.)
"Леопольд и золотая рыбка" (1975 г.)
"Клад кота Леопольда" (1981 г.)
"Телевизор кота Леопольда" (1981 г.)
"День рождения Леопольда" (1982 г.)
"Прогулка кота Леопольда" (1982 г.)
"Лето кота Леопольда" (1983 г.)
"Кот Леопольд во сне и наяву" (1984 г.)
"Поликлинника кота Леопольда" (1986 г.)
"Автомобиль кота Леопольда" (1987 г.)
Качество видео: HDRip
Продолжительность: 01:36:02
Видеокодек: XviD
Битрейт видео: ~ 1337 кбит/с
Размер кадра: 704x528
Аудиокодек: AC3 5.1
Битрейт аудио: 448 кбит/с

MediaInfo

Код:
Общее
Полное имя                       : G:\Priklyucheniya.kota.Leopolda.1975-1987.XviD.HDRip\09.Poliklinnika.kota.Leopolda.1985.XviD.HDRip.avi
Формат                           : AVI
Формат/Информация                : Audio Video Interleave
Размер файла                     : 125 Мбайт
Продолжительность                : 9 м. 42 с.
Общий поток                      : 1795 Кбит/сек
Примечание                       : Rip by vvmon
Видео
Идентификатор                    : 0
Формат                           : MPEG-4 Visual
Профиль формата                  : Advanced [email protected]
Параметр BVOP формата            : 4
Параметр QPel формата            : Нет
Параметр GMC формата             : Без точки перехода
Параметр матрицы формата         : Default (MPEG)
Идентификатор кодека             : XVID
Идентификатор кодека/Подсказка   : XviD
Продолжительность                : 9 м. 42 с.
Битрейт                          : 1337 Кбит/сек
Ширина                           : 704 пикс.
Высота                           : 528 пикс.
Соотношение сторон               : 4:3
Частота кадров                   : 25,000 кадр/сек
Цветовое пространство            : YUV
Подвыборка цветности             : 4:2:0
Битовая глубина                  : 8 бит
Тип развёртки                    : Прогрессивная
Метод сжатия                     : С потерями
Бит/(Пиксели*Кадры)              : 0.144
Размер потока                    : 92,9 Мбайт (74%)
Библиотека кодирования           : XviD 1.2.1 (UTC 2008-12-04)
Аудио
Идентификатор                    : 1
Формат                           : AC-3
Формат/Информация                : Audio Coding 3
Расширение режима                : CM (complete main)
Идентификатор кодека             : 2000
Продолжительность                : 9 м. 42 с.
Вид битрейта                     : Постоянный
Битрейт                          : 448 Кбит/сек
Каналы                           : 6 каналов
Расположение каналов             : Front: L C R, Side: L R, LFE
Частота                          : 48,0 КГц
Битовая глубина                  : 16 бит
Метод сжатия                     : С потерями
Задержка видео                   : 8 мс.
Размер потока                    : 31,1 Мбайт (25%)
Выравнивание                     : Разделение по промежуткам
Продолжительность промежутка     : 40  мс. (1,00 видеокадр)
Время предзагрузки промежутка    : 500 ms
       

_________________

Создавая "Новую папку", не считайте себя Создателем - это право Вам дано Админом




Last edited by Varius on 2011-05-30 05:02; edited 1 time in total
Other forum [Profile] [PM]

Dracula

Longevity: 8 years

Posts: 11034

Торрент-статистика

Post 04-Oct-2011 07:52 (after 4 months 5 days)

Топик был перенесен из форума Мультфильмы (HD DVD и Blu-ray) в форум Отечественные мультфильмы

Delia
 
Similar theme
Forum Topic Author Torrent Replies Last Post
./templates/default/images/folder_dl.gif Фильмы 2001-2010 Римские приключения / To Rome with Love (Вуди Аллен)[2012, Мелодрама, комедия] BDRip 720p| Лицензия| DeadMmau5
1 | 0

0 | 611

9

2012-12-05 19:42
DeadMmau5 Latest
./templates/default/images/folder_dl.gif Иностранные мультфильмы Брейвстар: Легенда / BraveStarr: The Legend (Том Татаранович / Tom Tataranowicz) [1988, мультфильм, фантастика, приключения, вестерн, DVD5 (Custom)] [4:3 NTSC R1] Dub + Orginal Eng + DUB Spa + Commentary Eng Omen
0 | 1

0 | 527

0

2015-05-22 09:01
Omen Latest
./templates/default/images/folder_dl.gif Обучающее видео Учебный центр 1C | Использование прикладного решения 1С Розница 8.2 Редакция 2 (2015) PCRec Varius
1 | 0

0 | 2517

44

2015-07-16 05:16
Varius Latest
./templates/default/images/folder_dl.gif Зарубежное кино Изгой-один: Звёздные войны. Истории / Rogue One: A Star Wars Story (Гарет Эдвардс) [2016 г., фантастика, боевик, приключения, BDRip 1080p] DUB | Чистый звук Theseus
1 | 0

0 | 7735

7

2017-03-22 11:05
Theseus Latest
./templates/default/images/folder_dl.gif Фильмы 2011-2020 Терминатор: Тёмные судьбы / Terminator: Dark Fate (Тим Миллер) [2019, Фантастика, боевик, приключения, BDRip-AVC] [DUB] [iTunes] Орлов Владимир
1 | 0

0 | 416

0

2020-01-31 08:36
Орлов Владимир Latest
Display posts from previous:    
Reply to topic

The time now is: Today 11:44

All times are GMT + 3 Hours



You cannot post new topics in this forum
You cannot reply to topics in this forum
You cannot edit your posts in this forum
You cannot delete your posts in this forum
You cannot vote in polls in this forum
You cannot attach files in this forum
You cannot download files in this forum