Today is a free download without charge Download

Веселые ребята (1934) [1080i] HDTV

Reply to topic
 
Author
Message

UndegraundMen ®

Longevity: 6 years 2 months

Posts: 23038

Торрент-статистика

Post 22-Feb-2013 12:04

[Quote]

-Веселые ребята (1934) HDTV- Русское название: Веселые ребята
Год выпуска: 1934
Жанр: Комедия, Мьюзикл
Описание фильма:
Музыкальная комедия о похождениях жизнерадостного пастуха-музыканта Кости Потехина, которого приняли за модного заграничного гастролера. В одесском мюзик-холле простодушный Костя произвел сенсацию и стал дирижером джаз-оркестра. Его оркестр готовится к выступлению на сцене Большого театра, а вместо репетиций играет на похоронах...
Режиссер: Григорий Александров
Актеры: Леонид Утесов, Любовь Орлова, Мария Стрелкова, Мария Иванова, Елена Тяпкина, Федор Курихин, Арнольд Арнольд, Роберт Эрдман, Эммануил Геллер, Юрий Медведев

Продолжительность: 01:29:44

Качество видео: HDTV 1080i
Контейнер: MKV -> переделан из TS
Видеокодек: MPEG-4 AVC/H.264
Видео: H.264, 6601 Кбит/с, 1920x1080i
Аудио: Русский: AC3, 2.0, 448 Кбит/с, 16 bit
Релиз от: Релиз группа:

Рецензия, отзыв о фильме

Легко на сердце от песни весёлой
«Весёлые ребята» — один из самых впечатляющих фильмов 1930-х годов и уж точно один из лучших мюзиклов всех времён (сейчас этот жанр практически мёртв, так что уже можно подводить итоги).
И это несмотря на то, что надуманнее и фальшивее жанра, чем мюзикл, почитай что и нет.
Знакомьтесь, Костя Потехин, пастух. Он каждый день гоняет коров на выпас и всю дорогу поёт бодрую песню о том, как же всё-таки легко на сердце от песни весёлой. В один прекрасный день отдыхающее семейство нэпманов принимает Константина за заезжего парагвайского маэстро. И приглашает его к себе. Костя соглашается, и понеслось…
Описывать сюжет «Весёлых ребят» смысла не имеет. Не имеет, потому что это не цельная история, а каскад сумасшедших похождений, невероятных встреч, погонь, драк и, конечно, музыки. Всё смешалось в доме Облонских: тут тебе и массовое побоище инструментами в джазовом коллективе «Дружба», и набег рогатого скота на буржуйское пиршество, и заваруха в Большом театре, короче, чего там только нет. Реальные кадры сменяются мультиками, глаза побитых героев высыпают пуды искр, теснятся, выпихивая друг друга из кадра, катафалки, пляжи, мюзик-холлы и даже гора Парамаунт (студия Paramount Pictures уже тогда 22 года как работала, и её появление в финале — превосходный символ утёртого носа голливудского Чемберлена).
Что такое «Весёлые ребята»? Конечно, шиза. Конечно, сюр. Когда промокшие джазмены начинают играть, и инструменты окатывают окружающее водой, как брандспойнты — это, конечно, помешательство. Но это-то и делает фильм незабываемым. То, что в то же самое время ваял Голливуд — просто детский лепет по сравнению с выкрутасами КиноСовдепии. После мюзикла Александрова даже Тарантино может показаться педантом (реалистом — уж точно). Вот она, абсолютная творческая свобода во всей красе.
Разыскивать говорящие детали в «Весёлых ребятах» — одно удовольствие (благо, их тут немало). Кроме чисто гримас эпохи (например, тут активно действует бык по имени Чемберлен), тут есть ещё богатый слой культурных аллюзий — ведь делали-то интеллигентные люди. Например, эпизод, где героиня Орловой кружится по комнате верхом на быке — это очень своеобразный намёк на похищение Европы. Баран, спрятанный под тигровую шкуру, невольно заставляет вспомнить о поэме Шота Руставели. Некоторые вещи в «Ребятах» даже обогнали своё время — например, тот саунд, которым коллектив «Дружба» пытается заменить разломанные инструменты, живо напоминает современные аранжировки Тимбалэнда, а бесформенный наряд Орловой в той же сцене — стиль певицы Lady Gaga. Конечно, Александров этого не знал, но всё же…
Минус у этого фильма был только один — плохое качество сохранившихся плёнок (рваное ч/б). Но теперь нет и его — с приходом действительно великолепной цветной версии.
10 из 10

MediaInfo

Общее
Уникальный идентификатор : 193691433413467256364280321507098454195 (0x91B79CF7F009D135A0663C40CAB168B3)
Полное имя : D:\Video\Veselie.Rebyata.HDTV.1080i.ac3.CMEGroup.mkv
Формат : Matroska
Версия формата : Version 2
Размер файла : 4,42 Гбайт
Продолжительность : 1 ч. 29 м.
Общий поток : 7052 Кбит/сек
Дата кодирования : UTC 2013-02-21 16:24:26
Программа кодирования : mkvmerge v5.4.0 ('Piper') built on Mar 10 2012 13:34:39
Библиотека кодирования : libebml v1.2.3 + libmatroska v1.3.0
Видео
Идентификатор : 1
Формат : AVC
Формат/Информация : Advanced Video Codec
Профиль формата : [url=mailto:[email protected]][email protected][/url]
Параметр CABAC формата : Да
Параметр ReFrames формата : 3 кадра
Идентификатор кодека : V_MPEG4/ISO/AVC
Продолжительность : 1 ч. 29 м.
Битрейт : 6464 Кбит/сек
Ширина : 1920 пикселей
Высота : 1080 пикселей
Соотношение сторон : 16:9
Частота кадров : 50,000 кадров/сек
Частота кадров в оригинале : 25,000 кадров/сек
Стандарт вещания : Component
Цветовое пространство : YUV
Субдискретизация насыщенности : 4:2:0
Битовая глубина : 8 бит
Тип развёртки : Чересстрочная
Порядок развёртки : Верхнее поле первое
Бит/(Пиксели*Кадры) : 0.062
Размер потока : 4,05 Гбайт (92%)
Заголовок : HDTV 1080i
Язык : Russian
Default : Да
Forced : Нет
Основные цвета : BT.709-5, BT.1361, IEC 61966-2-4, SMPTE RP177
Характеристики трансфера : BT.709-5, BT.1361
Коэффициенты матрицы : BT.709-5, BT.1361, IEC 61966-2-4 709, SMPTE RP177
Аудио
Идентификатор : 2
Формат : AC-3
Формат/Информация : Audio Coding 3
Расширение режима : CM (complete main)
Идентификатор кодека : A_AC3
Продолжительность : 1 ч. 29 м.
Вид битрейта : Постоянный
Битрейт : 448 Кбит/сек
Каналы : 2 канала
Расположение каналов : Front: L R
Частота : 48,0 КГц
Битовая глубина : 16 бит
Метод сжатия : С потерями
Размер потока : 288 Мбайт (6%)
Заголовок : Russian AC3 2.0
Язык : Russian
Default : Да
Forced : Нет

Bitrate Viewer

Скриншоты:
         
         
Время раздачи: с 10:00 до 20:00 (GMT+2) - до 15 скачавших
Other forum [Profile] [PM]
Display posts from previous:    
Reply to topic

The time now is: Today 05:45

All times are GMT + 3 Hours



You cannot post new topics in this forum
You cannot reply to topics in this forum
You cannot edit your posts in this forum
You cannot delete your posts in this forum
You cannot vote in polls in this forum
You cannot attach files in this forum
You cannot download files in this forum